[ create a new paste ] login | about

Link: http://codepad.org/OOdFHjrM    [ raw code | fork ]

Plain Text, pasted on Feb 4:
1
2
3
4
5
6
7
8
9
10
11
12
13
14
15
16
17
18
19
20
21
22
23
24
25
26
27
28
29
30
31
32
33
34
35
36
37
38
39
40
41
42
43
44
45
46
47
48
49
50
51
52
53
54
55
56
57
58
59
60
61
62
63
64
65
66
67
68
69
70
71
72
73
74
75
76
77
78
79
80
81
82
83
84
85
86
87
88
89
90
91
92
93
94
95
96
97
98
99
100
101
102
103
104
105
106
107
108
109
110
111
112
113
114
115
116
117
118
119
120
121
122
123
124
125
126
127
128
129
130
131
132
133
134
135
136
137
138
139
140
141
142
143
144
145
146
147
148
149
150
151
152
153
154
155
156
157
158
159
160
161
162
163
164
165
166
167
168
169
170
171
172
173
174
175
176
177
178
179
180
181
182
183
184
185
186
187
188
189
190
191
192
193
194
195
196
197
198
199
200
201
202
203
204
205
206
207
208
209
210
211
212
213
214
215
216
217
218
219
220
221
222
223
224
225
226
227
228
229
230
231
232
233
234
235
236
237
238
239
240
241
242
243
244
245
246
247
248
249
250
251
252
253
254
255
256
257
258
259
260
261
262
263
264
265
266
267
268
269
270
271
272
273
274
275
276
277
278
279
280
281
282
283
284
285
286
287
288
289
290
291
292
293
294
295
296
297
298
299
300
301
302
303
304
305
306
307
308
309
310
311
312
313
314
315
316
317
318
319
320
321
322
323
324
325
326
327
328
329
330
331
332
333
334
335
336
337
338
339
340
341
342
343
344
345
346
347
348
349
350
351
352
353
354
355
356
357
358
359
360
361
362
363
364
365
366
367
368
369
370
371
372
373
374
375
376
377
378
379
380
381
382
383
384
385
386
387
388
389
390
391
392
393
394
395
396
397
398
399
400
401
402
403
404
405
406
407
408
409
410
411
412
413
414
415
416
417
418
419
420
421
422
423
424
425
426
427
428
429
430
431
432
433
434
435
436
437
438
439
440
441
442
443
444
445
446
447
448
449
450
451
452
453
454
455
456
457
458
459
460
461
462
463
464
465
466
467
468
469
470
471
472
473
474
475
476
477
478
479
480
481
482
483
484
485
486
487
488
CD1 - A Momentary Lapse of Reason Remixed & Updated
->
Exact Audio Copy V1.3 from 2. September 2016

EAC extraction logfile from 29. January 2020, 11:01

Pink Floyd / A Momentary Lapse Of Reason

Used drive  : PLEXTOR BD-R  PX-B950SA   Adapter: 1  ID: 1

Read mode               : Secure
Utilize accurate stream : Yes
Defeat audio cache      : Yes
Make use of C2 pointers : No

Read offset correction                      : 6
Overread into Lead-In and Lead-Out          : No
Fill up missing offset samples with silence : Yes
Delete leading and trailing silent blocks   : No
Null samples used in CRC calculations       : Yes
Used interface                              : Native Win32 interface for Win NT & 2000

Used output format : Internal WAV Routines
Sample format      : 44.100 Hz; 16 Bit; Stereo


TOC of the extracted CD

     Track |   Start  |  Length  | Start sector | End sector 
    ---------------------------------------------------------
        1  |  0:00.00 |  4:23.67 |         0    |    19791   
        2  |  4:23.67 |  4:52.67 |     19792    |    41758   
        3  |  9:16.59 |  6:04.56 |     41759    |    69114   
        4  | 15:21.40 |  5:10.13 |     69115    |    92377   
        5  | 20:31.53 |  5:42.33 |     92378    |   118060   
        6  | 26:14.11 |  6:15.32 |    118061    |   146217   
        7  | 32:29.43 |  1:12.21 |    146218    |   151638   
        8  | 33:41.64 |  1:46.30 |    151639    |   159618   
        9  | 35:28.19 |  6:16.34 |    159619    |   187852   
       10  | 41:44.53 |  0:39.32 |    187853    |   190809   
       11  | 42:24.10 |  8:47.34 |    190810    |   230368   


Range status and errors

Selected range

     Filename C:\Pink Floyd\2019 The Later Years (18-Disc Box Set Pink Floyd Records)\CD1 1987 A Momentary Lapse Of Reason\Pink Floyd - A Momentary Lapse Of Reason.wav

     Peak level 96.9 %
     Extraction speed 7.1 X
     Range quality 100.0 %
     Test CRC 0D8293F8
     Copy CRC 0D8293F8
     Copy OK

No errors occurred

 
AccurateRip summary
 
Track  1  accurately ripped (confidence 15)  [F6CF9D00]  (AR v2)
Track  2  accurately ripped (confidence 15)  [6C604E34]  (AR v2)
Track  3  accurately ripped (confidence 15)  [26339A1C]  (AR v2)
Track  4  accurately ripped (confidence 15)  [078AD82F]  (AR v2)
Track  5  accurately ripped (confidence 15)  [DB271115]  (AR v2)
Track  6  accurately ripped (confidence 15)  [84A466BF]  (AR v2)
Track  7  accurately ripped (confidence 15)  [907AB045]  (AR v2)
Track  8  accurately ripped (confidence 15)  [313E2D92]  (AR v2)
Track  9  accurately ripped (confidence 15)  [4885AB88]  (AR v2)
Track 10  accurately ripped (confidence 15)  [E9E9BA4D]  (AR v2)
Track 11  accurately ripped (confidence 15)  [13F066B1]  (AR v2)
 
All tracks accurately ripped

End of status report

---- CUETools DB Plugin V2.1.6

[CTDB TOCID: ozgCoYIIUhnra2Id7TLRg20j_yc-] found
Submit result: ozgCoYIIUhnra2Id7TLRg20j_yc- has been confirmed
Track | CTDB Status
  1   | (112/112) Accurately ripped
  2   | (112/112) Accurately ripped
  3   | (112/112) Accurately ripped
  4   | (112/112) Accurately ripped
  5   | (112/112) Accurately ripped
  6   | (112/112) Accurately ripped
  7   | (112/112) Accurately ripped
  8   | (112/112) Accurately ripped
  9   | (112/112) Accurately ripped
 10   | (112/112) Accurately ripped
 11   | (111/112) Accurately ripped


==== Log checksum 8DD386E6C94869347E9B2DA5F75B45623EAF4B57C1571E9389FD2AC09597A6B1 ====
->
=========================================================================================================================================================
->
CD2 - Delicate Sound Of Thunder Remixed Part 1
->
Exact Audio Copy V1.3 from 2. September 2016

EAC extraction logfile from 29. January 2020, 10:33

Pink Floyd / Delicate Sound Of Thunder (Live) Part 1

Used drive  : PLEXTOR BD-R  PX-B950SA   Adapter: 1  ID: 1

Read mode               : Secure
Utilize accurate stream : Yes
Defeat audio cache      : Yes
Make use of C2 pointers : No

Read offset correction                      : 6
Overread into Lead-In and Lead-Out          : No
Fill up missing offset samples with silence : Yes
Delete leading and trailing silent blocks   : No
Null samples used in CRC calculations       : Yes
Used interface                              : Native Win32 interface for Win NT & 2000

Used output format : Internal WAV Routines
Sample format      : 44.100 Hz; 16 Bit; Stereo


TOC of the extracted CD

     Track |   Start  |  Length  | Start sector | End sector 
    ---------------------------------------------------------
        1  |  0:00.00 | 12:09.18 |         0    |    54692   
        2  | 12:09.18 |  3:18.70 |     54693    |    69612   
        3  | 15:28.13 |  5:15.30 |     69613    |    93267   
        4  | 20:43.43 |  6:16.68 |     93268    |   121535   
        5  | 27:00.36 |  0:34.43 |    121536    |   124128   
        6  | 27:35.04 |  1:35.38 |    124129    |   131291   
        7  | 29:10.42 |  6:17.10 |    131292    |   159576   
        8  | 35:27.52 |  0:34.43 |    159577    |   162169   
        9  | 36:02.20 | 10:25.18 |    162170    |   209062   
       10  | 46:27.38 |  8:02.37 |    209063    |   245249   
       11  | 54:30.00 |  9:13.15 |    245250    |   286739   


Range status and errors

Selected range

     Filename C:\Pink Floyd\2019 The Later Years (18-Disc Box Set Pink Floyd Records)\CD2-CD3 1988 Delicate Sound Of Thunder\Pink Floyd - Delicate Sound Of Thunder (Live) Part 1.wav

     Peak level 97.7 %
     Extraction speed 7.4 X
     Range quality 100.0 %
     Test CRC EE03A7C4
     Copy CRC EE03A7C4
     Copy OK

No errors occurred

 
AccurateRip summary
 
Track  1  accurately ripped (confidence 12)  [90F7277D]  (AR v2)
Track  2  accurately ripped (confidence 12)  [90F89806]  (AR v2)
Track  3  accurately ripped (confidence 12)  [F152DA2A]  (AR v2)
Track  4  accurately ripped (confidence 12)  [EAAE28FB]  (AR v2)
Track  5  accurately ripped (confidence 12)  [35880728]  (AR v2)
Track  6  accurately ripped (confidence 12)  [FCCC65E3]  (AR v2)
Track  7  accurately ripped (confidence 12)  [1E280B9D]  (AR v2)
Track  8  accurately ripped (confidence 12)  [72958E51]  (AR v2)
Track  9  accurately ripped (confidence 12)  [007147E6]  (AR v2)
Track 10  accurately ripped (confidence 12)  [9F795B19]  (AR v2)
Track 11  accurately ripped (confidence 12)  [E2C04EE5]  (AR v2)
 
All tracks accurately ripped

End of status report

---- CUETools DB Plugin V2.1.6

[CTDB TOCID: DMcZlVGZrJodTPh2.Wv.kEAPepw-] found
Submit result: DMcZlVGZrJodTPh2.Wv.kEAPepw- has been confirmed
Track | CTDB Status
  1   | (112/113) Accurately ripped
  2   | (113/113) Accurately ripped
  3   | (112/113) Accurately ripped
  4   | (113/113) Accurately ripped
  5   | (113/113) Accurately ripped
  6   | (113/113) Accurately ripped
  7   | (113/113) Accurately ripped
  8   | (113/113) Accurately ripped
  9   | (113/113) Accurately ripped
 10   | (113/113) Accurately ripped
 11   | (113/113) Accurately ripped


==== Log checksum 47B126D02D54DCCDE10534A97995166FF5F5B6179792F70AE8B8C9AC917A79CE ====
->
=========================================================================================================================================================
->
CD3 - Delicate Sound Of Thunder Remixed Part 2
->
Exact Audio Copy V1.3 from 2. September 2016

EAC extraction logfile from 29. January 2020, 10:03

Pink Floyd / Delicate Sound Of Thunder (Live) Part 2

Used drive  : PLEXTOR BD-R  PX-B950SA   Adapter: 1  ID: 1

Read mode               : Secure
Utilize accurate stream : Yes
Defeat audio cache      : Yes
Make use of C2 pointers : No

Read offset correction                      : 6
Overread into Lead-In and Lead-Out          : No
Fill up missing offset samples with silence : Yes
Delete leading and trailing silent blocks   : No
Null samples used in CRC calculations       : Yes
Used interface                              : Native Win32 interface for Win NT & 2000

Used output format : Internal WAV Routines
Sample format      : 44.100 Hz; 16 Bit; Stereo


TOC of the extracted CD

     Track |   Start  |  Length  | Start sector | End sector 
    ---------------------------------------------------------
        1  |  0:00.00 |  6:18.36 |         0    |    28385   
        2  |  6:18.36 |  5:18.26 |     28386    |    52261   
        3  | 11:36.62 |  2:48.71 |     52262    |    64932   
        4  | 14:25.58 |  4:51.00 |     64933    |    86757   
        5  | 19:16.58 |  4:38.38 |     86758    |   107645   
        6  | 23:55.21 |  7:45.11 |    107646    |   142531   
        7  | 31:40.32 |  7:37.48 |    142532    |   176854   
        8  | 39:18.05 |  8:17.74 |    176855    |   214203   
        9  | 47:36.04 |  5:26.28 |    214204    |   238681   
       10  | 53:02.32 |  9:54.36 |    238682    |   283267   
       11  | 62:56.68 |  6:08.56 |    283268    |   310923   
       12  | 69:05.49 |  8:10.43 |    310924    |   347716   


Range status and errors

Selected range

     Filename C:\Pink Floyd\2019 The Later Years (18-Disc Box Set Pink Floyd Records)\CD2-CD3 1988 Delicate Sound Of Thunder\Pink Floyd - Delicate Sound Of Thunder (Live) Part 2.wav

     Peak level 100.0 %
     Extraction speed 8.3 X
     Range quality 100.0 %
     Test CRC DA9AC94D
     Copy CRC DA9AC94D
     Copy OK

No errors occurred

 
AccurateRip summary
 
Track  1  accurately ripped (confidence 11)  [7A868B07]  (AR v2)
Track  2  accurately ripped (confidence 11)  [A8551573]  (AR v2)
Track  3  accurately ripped (confidence 11)  [A743045C]  (AR v2)
Track  4  accurately ripped (confidence 11)  [78172564]  (AR v2)
Track  5  accurately ripped (confidence 11)  [CEE8E51B]  (AR v2)
Track  6  accurately ripped (confidence 11)  [E588A5DD]  (AR v2)
Track  7  accurately ripped (confidence 11)  [F8DB1896]  (AR v2)
Track  8  accurately ripped (confidence 11)  [AB2C58C4]  (AR v2)
Track  9  accurately ripped (confidence 11)  [4EF39E56]  (AR v2)
Track 10  accurately ripped (confidence 11)  [3584C4F0]  (AR v2)
Track 11  accurately ripped (confidence 11)  [4353E3CF]  (AR v2)
Track 12  accurately ripped (confidence 11)  [B80ACF32]  (AR v2)
 
All tracks accurately ripped

End of status report

---- CUETools DB Plugin V2.1.6

[CTDB TOCID: 2.tcJhqX1GXAl82UpPzn7.PjNAo-] found
Submit result: 2.tcJhqX1GXAl82UpPzn7.PjNAo- has been confirmed
Track | CTDB Status
  1   | (108/108) Accurately ripped
  2   | (108/108) Accurately ripped
  3   | (108/108) Accurately ripped
  4   | (108/108) Accurately ripped
  5   | (108/108) Accurately ripped
  6   | (108/108) Accurately ripped
  7   | (108/108) Accurately ripped
  8   | (108/108) Accurately ripped
  9   | (108/108) Accurately ripped
 10   | (108/108) Accurately ripped
 11   | (108/108) Accurately ripped
 12   | (108/108) Accurately ripped


==== Log checksum 6F694F7B2654A42F4DA5E33D7D2350B99C4A8C243EF830567948E499215216D3 ====
->
=========================================================================================================================================================
->
CD4 - Live Recordings, 1987 & 1994 Unreleased Studio Recordings
->
Exact Audio Copy V1.3 from 2. September 2016

EAC extraction logfile from 29. January 2020, 9:34

Pink Floyd / Live Recordings 1987 & 1994

Used drive  : PLEXTOR BD-R  PX-B950SA   Adapter: 1  ID: 1

Read mode               : Secure
Utilize accurate stream : Yes
Defeat audio cache      : Yes
Make use of C2 pointers : No

Read offset correction                      : 6
Overread into Lead-In and Lead-Out          : No
Fill up missing offset samples with silence : Yes
Delete leading and trailing silent blocks   : No
Null samples used in CRC calculations       : Yes
Used interface                              : Native Win32 interface for Win NT & 2000

Used output format : Internal WAV Routines
Sample format      : 44.100 Hz; 16 Bit; Stereo


TOC of the extracted CD

     Track |   Start  |  Length  | Start sector | End sector 
    ---------------------------------------------------------
        1  |  0:00.00 |  6:57.08 |         0    |    31282   
        2  |  6:57.08 |  4:48.57 |     31283    |    52939   
        3  | 11:45.65 |  7:10.09 |     52940    |    85198   
        4  | 18:55.74 |  6:52.19 |     85199    |   116117   
        5  | 25:48.18 |  7:23.26 |    116118    |   149368   
        6  | 33:11.44 |  5:23.03 |    149369    |   173596   
        7  | 38:34.47 |  6:40.08 |    173597    |   203604   
        8  | 45:14.55 |  2:33.57 |    203605    |   215136   
        9  | 47:48.37 |  4:28.20 |    215137    |   235256   
       10  | 52:16.57 |  3:17.70 |    235257    |   250101   
       11  | 55:34.52 |  4:56.24 |    250102    |   272325   
       12  | 60:31.01 |  6:55.15 |    272326    |   303465   


Range status and errors

Selected range

     Filename C:\Pink Floyd\2019 The Later Years (18-Disc Box Set Pink Floyd Records)\CD4 2019 Live Recordings 1987 & 1994\Pink Floyd - Live Recordings 1987 & 1994.wav

     Peak level 99.0 %
     Extraction speed 7.4 X
     Range quality 100.0 %
     Test CRC E7F8A54F
     Copy CRC E7F8A54F
     Copy OK

No errors occurred

 
AccurateRip summary
 
Track  1  accurately ripped (confidence 10)  [9622FE0D]  (AR v2)
Track  2  accurately ripped (confidence 10)  [451AD174]  (AR v2)
Track  3  accurately ripped (confidence 10)  [EA5AFA2F]  (AR v2)
Track  4  accurately ripped (confidence 10)  [1DDBC65E]  (AR v2)
Track  5  accurately ripped (confidence 10)  [9DC2C47C]  (AR v2)
Track  6  accurately ripped (confidence 10)  [C615E1B4]  (AR v2)
Track  7  accurately ripped (confidence 10)  [C31219B2]  (AR v2)
Track  8  accurately ripped (confidence 10)  [0C3DF29A]  (AR v2)
Track  9  accurately ripped (confidence 10)  [687A1EC2]  (AR v2)
Track 10  accurately ripped (confidence 10)  [77B4242D]  (AR v2)
Track 11  accurately ripped (confidence 10)  [7C4C7451]  (AR v2)
Track 12  accurately ripped (confidence 10)  [79F7156B]  (AR v2)
 
All tracks accurately ripped

End of status report

---- CUETools DB Plugin V2.1.6

[CTDB TOCID: YwUKBNruHeH4g4_uXBdhu70aAu4-] found
Submit result: YwUKBNruHeH4g4_uXBdhu70aAu4- has been confirmed
Track | CTDB Status
  1   | (104/104) Accurately ripped
  2   | (104/104) Accurately ripped
  3   | (104/104) Accurately ripped
  4   | (104/104) Accurately ripped
  5   | (104/104) Accurately ripped
  6   | (104/104) Accurately ripped
  7   | (104/104) Accurately ripped
  8   | (104/104) Accurately ripped
  9   | (104/104) Accurately ripped
 10   | (104/104) Accurately ripped
 11   | (104/104) Accurately ripped
 12   | (103/104) Accurately ripped


==== Log checksum 47A7C9F47A75E0786DBC6AC38C09AFDDE31F37CF93B45C0FFFA2EF1FE9043F1A ====
->
=========================================================================================================================================================
->
CD5 - Knebworth Concert 1990
->
Exact Audio Copy V1.3 from 2. September 2016

EAC extraction logfile from 29. January 2020, 8:54

Pink Floyd / Knebworth Concert 1990

Used drive  : PLEXTOR BD-R  PX-B950SA   Adapter: 1  ID: 1

Read mode               : Secure
Utilize accurate stream : Yes
Defeat audio cache      : Yes
Make use of C2 pointers : No

Read offset correction                      : 6
Overread into Lead-In and Lead-Out          : No
Fill up missing offset samples with silence : Yes
Delete leading and trailing silent blocks   : No
Null samples used in CRC calculations       : Yes
Used interface                              : Native Win32 interface for Win NT & 2000

Used output format : Internal WAV Routines
Sample format      : 44.100 Hz; 16 Bit; Stereo


TOC of the extracted CD

     Track |   Start  |  Length  | Start sector | End sector 
    ---------------------------------------------------------
        1  |  0:00.00 | 11:06.03 |         0    |    49952   
        2  | 11:06.03 |  5:04.65 |     49953    |    72817   
        3  | 16:10.68 |  4:47.46 |     72818    |    94388   
        4  | 20:58.39 |  9:34.34 |     94389    |   137472   
        5  | 30:32.73 | 10:10.62 |    137473    |   183284   
        6  | 40:43.60 |  7:47.32 |    183285    |   218341   
        7  | 48:31.17 |  7:14.52 |    218342    |   250943   


Range status and errors

Selected range

     Filename C:\Pink Floyd\2019 The Later Years (18-Disc Box Set Pink Floyd Records)\CD5 2019 Knebworth Concert 1990\Pink Floyd - Knebworth Concert 1990.wav

     Peak level 96.5 %
     Extraction speed 3.3 X
     Range quality 99.9 %
     Test CRC 205FD3C8
     Copy CRC 205FD3C8
     Copy OK

No errors occurred

 
AccurateRip summary
 
Track  1  accurately ripped (confidence 11)  [507CC393]  (AR v2)
Track  2  accurately ripped (confidence 11)  [3E5B0959]  (AR v2)
Track  3  accurately ripped (confidence 11)  [B45E87B0]  (AR v2)
Track  4  accurately ripped (confidence 11)  [470AE884]  (AR v2)
Track  5  accurately ripped (confidence 11)  [2889BED0]  (AR v2)
Track  6  accurately ripped (confidence 11)  [E6947A94]  (AR v2)
Track  7  accurately ripped (confidence 11)  [688D0C6D]  (AR v2)
 
All tracks accurately ripped

End of status report

---- CUETools DB Plugin V2.1.6

[CTDB TOCID: RC1GVY5bFcE7rQBc.axNsLF4CBg-] found
Submit result: RC1GVY5bFcE7rQBc.axNsLF4CBg- has been confirmed
Track | CTDB Status
  1   | (110/110) Accurately ripped
  2   | (110/110) Accurately ripped
  3   | (110/110) Accurately ripped
  4   | (110/110) Accurately ripped
  5   | (110/110) Accurately ripped
  6   | (110/110) Accurately ripped
  7   | (110/110) Accurately ripped


==== Log checksum 8E75751FE095A95AB307FFD8C32872CDD2FA60ED2A711F0979077AB55BD3EB19 ====




Create a new paste based on this one


Comments: