[ create a new paste ] login | about

Link: http://codepad.org/OSXVUy9f    [ raw code | fork ]

Plain Text, pasted on May 10:
Exact Audio Copy V1.1 from 23. June 2015

EAC extraction logfile from 19. October 2015, 15:40

Quiet Riot / Set List - Quiet Riot (Live) [Sony~Epic, 88875063652, EU]

Used drive  : PIONEER DVD-RW  DVR-220L   Adapter: 3  ID: 0

Read mode               : Secure
Utilize accurate stream : Yes
Defeat audio cache      : Yes
Make use of C2 pointers : No

Read offset correction                      : 6
Overread into Lead-In and Lead-Out          : No
Fill up missing offset samples with silence : Yes
Delete leading and trailing silent blocks   : No
Null samples used in CRC calculations       : Yes
Used interface                              : Installed external ASPI interface

Used output format              : User Defined Encoder
Selected bitrate                : 1024 kBit/s
Quality                         : High
Add ID3 tag                     : No
Command line compressor         : C:\Program Files\Exact Audio Copy\FLAC\FLAC.EXE
Additional command line options : -V -8 -T "Date=%year%" -T "Genre=%genre%" %source%


TOC of the extracted CD

     Track |   Start  |  Length  | Start sector | End sector 
    ---------------------------------------------------------
        1  |  0:00.00 |  5:34.47 |         0    |    25096   
        2  |  5:34.47 |  5:16.24 |     25097    |    48820   
        3  | 10:50.71 |  5:01.16 |     48821    |    71411   
        4  | 15:52.12 |  5:14.03 |     71412    |    94964   
        5  | 21:06.15 |  5:08.09 |     94965    |   118073   
        6  | 26:14.24 |  4:23.64 |    118074    |   137862   
        7  | 30:38.13 |  6:38.74 |    137863    |   167786   
        8  | 37:17.12 |  3:46.12 |    167787    |   184748   
        9  | 41:03.24 |  5:00.52 |    184749    |   207300   
       10  | 46:04.01 |  8:07.12 |    207301    |   243837   
       11  | 54:11.13 |  3:23.67 |    243838    |   259129   
       12  | 57:35.05 |  6:33.29 |    259130    |   288633   


Range status and errors

Selected range

     Filename C:\CDRip by Deminbek\Quiet Riot - Set List - Quiet Riot (Live) [Sony~Epic, 88875063652, EU].wav

     Peak level 100.0 %
     Extraction speed 7.6 X
     Range quality 100.0 %
     Test CRC ACE332D3
     Copy CRC ACE332D3
     Copy OK

No errors occurred

 
AccurateRip summary
 
Track  1  accurately ripped (confidence 1)  [0D8E831D]  (AR v2)
Track  2  accurately ripped (confidence 1)  [98B65B4A]  (AR v2)
Track  3  accurately ripped (confidence 1)  [A986E9C8]  (AR v2)
Track  4  accurately ripped (confidence 1)  [18E5F540]  (AR v2)
Track  5  accurately ripped (confidence 1)  [6999734D]  (AR v2)
Track  6  accurately ripped (confidence 1)  [6FA7989F]  (AR v2)
Track  7  accurately ripped (confidence 1)  [B4A09505]  (AR v2)
Track  8  accurately ripped (confidence 1)  [AA4C191F]  (AR v2)
Track  9  accurately ripped (confidence 1)  [9E1A608E]  (AR v2)
Track 10  accurately ripped (confidence 1)  [68C4B53E]  (AR v2)
Track 11  accurately ripped (confidence 1)  [87A49A47]  (AR v2)
Track 12  accurately ripped (confidence 1)  [F5CCAF7E]  (AR v2)
 
All tracks accurately ripped

End of status report

---- CUETools DB Plugin V2.1.6

[CTDB TOCID: x.yO_pF44jGBk5w.gIUc75id8DI-] found
Submit result: already submitted
Track | CTDB Status
  1   | (6/7) Accurately ripped
  2   | (6/7) Accurately ripped
  3   | (6/7) Accurately ripped
  4   | (6/7) Accurately ripped
  5   | (6/7) Accurately ripped
  6   | (6/7) Accurately ripped
  7   | (6/7) Accurately ripped
  8   | (6/7) Accurately ripped
  9   | (6/7) Accurately ripped
 10   | (6/7) Accurately ripped
 11   | (6/7) Accurately ripped
 12   | (6/7) Accurately ripped


==== Log checksum 42F1480B70AA8A68B522DC967366BC9FC2B8A6106F0E5F101BD4CB7CCBED38D3 ====



Create a new paste based on this one


Comments: