[ create a new paste ] login | about

Link: http://codepad.org/OUPu1qMD    [ raw code | fork ]

Plain Text, pasted on Feb 15:
foobar2000 1.3 / Dynamic Range Meter 1.1.1
log date: 2014-04-11 14:39:09

--------------------------------------------------------------------------------
Analyzed: Peter, Paul And Mary / Peter, Paul And Mary (2014 AF Hybrid SACD)
--------------------------------------------------------------------------------

DR         Peak         RMS     Duration Track
--------------------------------------------------------------------------------
DR9       -3.27 dB   -15.59 dB      1:37 01-Early In The Morning
DR11      -3.43 dB   -17.83 dB      2:49 02-500 Miles
DR9       -5.47 dB   -17.69 dB      2:55 03-Sorrow
DR10      -3.37 dB   -15.37 dB      2:08 04-This Train
DR10      -2.89 dB   -15.61 dB      2:34 05-Bamboo
DR11      -3.42 dB   -17.53 dB      4:27 06-Its Raining
DR9       -2.63 dB   -15.65 dB      2:25 07-If I Had My Way
DR11      -3.41 dB   -17.98 dB      3:30 08-Cruel War
DR11      -2.97 dB   -18.12 dB      2:57 09-Lemon Tree
DR8       -3.37 dB   -14.15 dB      2:10 10-If I Had A Hammer
DR9       -4.90 dB   -16.27 dB      2:49 11-Autumn To May
DR10      -4.42 dB   -18.00 dB      3:57 12-Where Have All The Flowers Gone?
--------------------------------------------------------------------------------

Number of tracks:  12
Official DR value: DR10

Samplerate:        88200 Hz
Channels:          2
Bits per sample:   24
Bitrate:           2601 kbps
Codec:             FLAC
================================================================================




Create a new paste based on this one


Comments: