[ create a new paste ] login | about

Link: http://codepad.org/OYiMXFBh    [ raw code | fork ]

Plain Text, pasted on Mar 7:
Exact Audio Copy V1.0 beta 3 from 29. August 2011

EAC extraction logfile from 13. November 2014, 21:04

Rory Gallagher / Irish Tour '74.. CD2 (2014, Cork City Hall, 3 & 5 January 1974)

Used drive : ATAPI iHAS124 B Adapter: 1 ID: 0

Read mode : Secure
Utilize accurate stream : Yes
Defeat audio cache : Yes
Make use of C2 pointers : No

Read offset correction : 6
Overread into Lead-In and Lead-Out : No
Fill up missing offset samples with silence : Yes
Delete leading and trailing silent blocks : No
Null samples used in CRC calculations : Yes
Used interface : Installed external ASPI interface

Used output format : User Defined Encoder
Selected bitrate : 128 kBit/s
Quality : High
Add ID3 tag : Yes
Command line compressor : C:\Program Files (x86)\Exact Audio Copy\Flac\flac.exe
Additional command line options : -V -8 -T "Date=%year%" -T "Genre=%genre%" %source%


TOC of the extracted CD

Track | Start | Length | Start sector | End sector
––––––––––––––––––––––––––––-
1 | 0:00.00 | 6:09.46 | 0 | 27720
2 | 6:09.46 | 3:24.42 | 27721 | 43062
3 | 9:34.13 | 2:16.65 | 43063 | 53327
4 | 11:51.03 | 3:17.64 | 53328 | 68166
5 | 15:08.67 | 7:58.73 | 68167 | 104089
6 | 23:07.65 | 9:17.30 | 104090 | 145894
7 | 32:25.20 | 16:15.08 | 145895 | 219027


Range status and errors

Selected range

Filename G:\CD\Rory Gallagher - Irish Tour '74.. CD2.wav

Peak level 97.0 %
Extraction speed 5.7 X
Range quality 100.0 %
Test CRC 98A9CF30
Copy CRC 98A9CF30
Copy OK

No errors occurred


AccurateRip summary

Track 1 accurately ripped (confidence 2) [230D2C17] (AR v2)
Track 2 accurately ripped (confidence 2) [A7CDDE43] (AR v2)
Track 3 accurately ripped (confidence 2) [7605BE84] (AR v2)
Track 4 accurately ripped (confidence 2) [C642DBCB] (AR v2)
Track 5 accurately ripped (confidence 2) [0A810FEC] (AR v2)
Track 6 accurately ripped (confidence 2) [8461A5C3] (AR v2)
Track 7 accurately ripped (confidence 2) [E61FDA4B] (AR v2)

All tracks accurately ripped

End of status report

–– CUETools DB Plugin V2.1.3

[CTDB TOCID: os3.z5Ri1NunjkUkou5f50GZH3I-] found, Submit result: os3.z5Ri1NunjkUkou5f50GZH3I- has been confirmed
[8055da3f] (1/6) No match
[c866660d] (5/6) Accurately ripped


==== Log checksum 17C515729141E7BE39BBEC6936B24AE0F78EFAD1F55E3E3C4C9C0A5C5C5EBD0D ====


Create a new paste based on this one


Comments: