[ create a new paste ] login | about

Link: http://codepad.org/OZTheeWY    [ raw code | fork ]

Plain Text, pasted on May 11:
foobar2000 1.3.14 / Dynamic Range Meter 1.1.1
log date: 2017-05-10 17:31:28

--------------------------------------------------------------------------------
Analyzed: Foreigner / Foreigner ( Hybrid SACD, Mobile Fidelity UDSACD 2050 )
--------------------------------------------------------------------------------

DR         Peak         RMS     Duration Track
--------------------------------------------------------------------------------
DR10      -0.15 dB   -13.51 dB      3:53 01-Feels Like The First Time
DR9       -1.18 dB   -14.31 dB      3:24 02-Cold As Ice
DR12      -0.24 dB   -17.20 dB      4:03 03-Starrider
DR10      -1.05 dB   -13.90 dB      3:05 04-Headknocker
DR9       -1.10 dB   -14.35 dB      4:21 05-The Damage Is Done
DR11      -1.25 dB   -14.08 dB      2:57 06-Long, Long Way From Home
DR12      -1.34 dB   -15.65 dB      3:53 07-Woman Oh Woman
DR10      -1.02 dB   -13.99 dB      4:26 08-At War With The World
DR11      -0.22 dB   -14.92 dB      4:17 09-Fool For You Anyway
DR10      -1.34 dB   -14.04 dB      5:16 10-I Need You
--------------------------------------------------------------------------------

Number of tracks:  10
Official DR value: DR11

Samplerate:        44100 Hz
Channels:          2
Bits per sample:   16
Bitrate:           881 kbps
Codec:             FLAC
================================================================================




Create a new paste based on this one


Comments: