[ create a new paste ] login | about

Link: http://codepad.org/OhFxMQCu    [ raw code | fork ]

Plain Text, pasted on Mar 22:
[CUETools log; Date: 3/22/2016 5:24:09 PM; Version: 2.1.5]
Pregap length 00:00:32.
[CTDB TOCID: 3rGBJIqiocRIDckQLEwSsL03q80-] found.
Track | CTDB Status
  1   | (2/3) Accurately ripped
  2   | (2/3) Accurately ripped
  3   | (2/3) Accurately ripped
  4   | (2/3) Accurately ripped
  5   | (2/3) Accurately ripped
  6   | (2/3) Accurately ripped
  7   | (2/3) Accurately ripped
  8   | (2/3) Accurately ripped
  9   | (2/3) Accurately ripped
 10   | (2/3) Accurately ripped
 11   | (2/3) Accurately ripped
 12   | (2/3) Accurately ripped
 13   | (2/3) Accurately ripped
 14   | (2/3) Accurately ripped
 15   | (2/3) Accurately ripped
 16   | (2/3) Accurately ripped
 17   | (2/3) Accurately ripped
 18   | (2/3) Accurately ripped
 19   | (2/3) Accurately ripped
 20   | (2/3) Accurately ripped
 21   | (2/3) Accurately ripped
 22   | (2/3) Accurately ripped
 23   | (2/3) Accurately ripped
 24   | (2/3) Accurately ripped
 25   | (2/3) Accurately ripped
 26   | (2/3) Accurately ripped
[AccurateRip ID: 00411a7b-04b5dffe-8a0ffd1a] found.
Track   [  CRC   |   V2   ] Status
 01     [32495c77|5479f5e3] (14+06/20) Accurately ripped
 02     [29d0f9cb|9b7fc0bf] (14+06/22) Accurately ripped
 03     [6791ae84|560f4a52] (14+06/20) Accurately ripped
 04     [ad7011eb|a5da826b] (14+06/20) Accurately ripped
 05     [ebe7248d|59ce07bd] (14+06/20) Accurately ripped
 06     [2235df26|9a7b9825] (13+06/19) Accurately ripped
 07     [a7007e86|b9ae0fa5] (14+06/20) Accurately ripped
 08     [6cbc9a54|61e47cc3] (14+06/20) Accurately ripped
 09     [044fa6ea|ba0b786a] (14+06/20) Accurately ripped
 10     [a4e24271|954d1d24] (14+06/20) Accurately ripped
 11     [c60d43ca|a82de037] (14+06/20) Accurately ripped
 12     [60f03c00|14aca219] (14+06/20) Accurately ripped
 13     [7bcbe014|b58fd8fe] (14+06/20) Accurately ripped
 14     [e66151a0|3aad043c] (14+05/19) Accurately ripped
 15     [57820250|d357c582] (13+06/19) Accurately ripped
 16     [38647c96|b97deb9b] (14+05/19) Accurately ripped
 17     [cd24c2ff|b63dc13e] (14+05/19) Accurately ripped
 18     [c35097db|ee2bd69f] (15+06/21) Accurately ripped
 19     [d3b67bd7|683a1a6a] (14+06/20) Accurately ripped
 20     [1c5405f4|58a968bd] (15+06/21) Accurately ripped
 21     [98fb422c|4c615f73] (15+06/21) Accurately ripped
 22     [46d917d0|032ed79d] (15+06/21) Accurately ripped
 23     [98618c7d|34d2d3cc] (15+06/21) Accurately ripped
 24     [7c86c675|b6df3f7a] (15+06/21) Accurately ripped
 25     [23d52288|8070c451] (15+06/21) Accurately ripped
 26     [b86e8046|54fe3766] (14+06/20) Accurately ripped
Offsetted by 868:
 01     [e11b85fc] (00/20) No match (V2 was not tested)
 02     [0df4c807] (02/22) Accurately ripped
 03     [8448d7b7] (00/20) No match (V2 was not tested)
 04     [44506734] (00/20) No match (V2 was not tested)
 05     [5e0e7eca] (00/20) No match (V2 was not tested)
 06     [57488bb2] (00/19) No match (V2 was not tested)
 07     [81b3b774] (00/20) No match (V2 was not tested)
 08     [42acf8ad] (00/20) No match (V2 was not tested)
 09     [c7abf97e] (00/20) No match (V2 was not tested)
 10     [61080816] (00/20) No match (V2 was not tested)
 11     [09834770] (00/20) No match (V2 was not tested)
 12     [6e226aa3] (00/20) No match (V2 was not tested)
 13     [034567b9] (00/20) No match (V2 was not tested)
 14     [dc446ecd] (00/19) No match (V2 was not tested)
 15     [4d7b21e4] (00/19) No match (V2 was not tested)
 16     [50c2b523] (00/19) No match (V2 was not tested)
 17     [86609f00] (00/19) No match (V2 was not tested)
 18     [379fa150] (00/21) No match (V2 was not tested)
 19     [42a2f694] (00/20) No match (V2 was not tested)
 20     [f46e2bec] (00/21) No match (V2 was not tested)
 21     [cdc74402] (00/21) No match (V2 was not tested)
 22     [25b44b18] (00/21) No match (V2 was not tested)
 23     [b8325e5a] (00/21) No match (V2 was not tested)
 24     [bf9daf26] (00/21) No match (V2 was not tested)
 25     [cb1cf972] (00/21) No match (V2 was not tested)
 26     [e37732ba] (00/20) No match (V2 was not tested)

Track Peak [ CRC32  ] [W/O NULL] [  LOG   ]
 --  100.0 [46DAC4E3] [7FF9ABA5]           
 01   97.2 [B14EB251] [8251167A]  W/O NULL 
 02   97.2 [08AED63E] [89A622B1]  W/O NULL 
 03  100.0 [BE47F685] [7FE960AB]  W/O NULL 
 04   93.9 [F3011811] [6C3E0EEE]  W/O NULL 
 05   87.7 [610FB515] [79B26285]  W/O NULL 
 06  100.0 [A81F8477] [9C8EA372]  W/O NULL 
 07   75.6 [E421A7BF] [D05D09A8]  W/O NULL 
 08   99.9 [8C4C72AB] [4703253A]  W/O NULL 
 09   97.2 [6FD0B510] [84774A73]  W/O NULL 
 10   97.2 [27436514] [C99E2141]  W/O NULL 
 11  100.0 [E5BB49CC] [40F2192E]  W/O NULL 
 12   97.2 [0BE072A6] [C56304DB]  W/O NULL 
 13   99.9 [9D8F007F] [EF88FD54]  W/O NULL 
 14   97.2 [D0F27ED3] [2352CF11]  W/O NULL 
 15   97.2 [CC4BB9AB] [4346311C]  W/O NULL 
 16   97.2 [D5A91F77] [8CF8A6D2]  W/O NULL 
 17  100.0 [CF9FE2D5] [89F98864]  W/O NULL 
 18   97.2 [F71316E0] [0E0ED1AA]  W/O NULL 
 19   83.9 [1B5E8FDF] [57B2E7E8]  W/O NULL 
 20   92.2 [FAE53AB9] [7FBE536D]  W/O NULL 
 21  100.0 [7D9E227C] [9AF47D17]  W/O NULL 
 22  100.0 [38EB0FE8] [447E3C89]  W/O NULL 
 23   78.5 [EBF51E8F] [8AD1818C]  W/O NULL 
 24   97.2 [1AB821A8] [C951513F]  W/O NULL 
 25   77.5 [BE6CC70A] [305F8CCA]  W/O NULL 
 26   95.5 [98D3A9BE] [44083B9D]  W/O NULL 



Create a new paste based on this one


Comments: