[ create a new paste ] login | about

Link: http://codepad.org/Oi7LacpG    [ raw code | fork ]

Plain Text, pasted on Aug 1:
foobar2000 1.3.17 / Dynamic Range Meter 1.1.1
log date: 2018-08-01 09:56:03

--------------------------------------------------------------------------------
Analyzed: Dexter Gordon / Dexter Calling
--------------------------------------------------------------------------------

DR         Peak         RMS     Duration Track
--------------------------------------------------------------------------------
DR14     -12.42 dB   -29.81 dB      7:42 01-Soul Sister
DR14     -10.36 dB   -28.01 dB      5:21 02-Modal Mood
DR15     -11.34 dB   -28.44 dB      5:17 03-I Want More
DR15     -10.09 dB   -28.28 dB      6:51 04-The End of a Love Affair
DR14     -11.49 dB   -28.15 dB      4:52 05-Clear the Dex
DR13     -13.64 dB   -30.59 dB      4:14 06-Ernie's Tune
DR14     -11.54 dB   -28.18 dB      3:22 07-Smile
DR15      -7.01 dB   -27.13 dB      5:20 08-Landslide
--------------------------------------------------------------------------------

Number of tracks:  8
Official DR value: DR14

Samplerate:        2822400 Hz / PCM Samplerate: 176400 Hz
Channels:          2
Bits per sample:   1
Bitrate:           5645 kbps
Codec:             DSD64
================================================================================




Create a new paste based on this one


Comments: