[ create a new paste ] login | about

Link: http://codepad.org/OirpY5NG    [ raw code | fork ]

Plain Text, pasted on Jun 4:
foobar2000 1.4.4 / Dynamic Range Meter 1.1.1
log date: 2019-06-03 21:51:23

--------------------------------------------------------------------------------
Analyzed: Michael McDonald / Motown Two
--------------------------------------------------------------------------------

DR         Peak         RMS     Duration Track
--------------------------------------------------------------------------------
DR11      -0.62 dB   -15.83 dB      3:34 01-You're All I Need To Get By
DR13      -1.11 dB   -15.32 dB      3:11 02-I Was Made To Love Her
DR12      -1.18 dB   -15.03 dB      3:42 03-Reach Out, I'll Be There
DR11      -1.63 dB   -14.18 dB      3:50 04-Stop, Look, Listen (To Your Heart)
DR11      -0.65 dB   -14.03 dB      3:20 05-Baby I Need Your Loving
DR13      -0.74 dB   -14.81 dB      3:37 06-Loving You Is Sweeter Than Ever
DR12      -0.57 dB   -14.33 dB      3:38 07-The Tracks Of My Tears
DR12      -0.75 dB   -15.03 dB      4:04 08-What's Going On
DR13      -0.11 dB   -15.84 dB      3:30 09-I Second That Emotion
DR12      -1.38 dB   -14.49 dB      3:44 10-After The Dance
DR11      -0.91 dB   -13.54 dB      3:14 11-Nowhere To Run
DR11      -1.33 dB   -14.36 dB      3:23 12-Tuesday Heartbreak
DR12      -0.01 dB   -14.35 dB      3:32 13-Mercy Mercy Me
DR12      -1.62 dB   -15.57 dB      3:42 14-Baby I'm For Real
--------------------------------------------------------------------------------

Number of tracks:  14
Official DR value: DR12

Samplerate:        88200 Hz
Channels:          6
Bits per sample:   24
Bitrate:           7452 kbps
Codec:             FLAC
================================================================================




Create a new paste based on this one


Comments: