[ create a new paste ] login | about

Link: http://codepad.org/OjiQ6YQm    [ raw code | fork ]

Plain Text, pasted on Mar 22:
[CUETools log; Date: 3/22/2016 5:24:21 PM; Version: 2.1.5]
Pregap length 00:00:32.
[CTDB TOCID: chVC1JiWDr.nBPZLiZzYnB_mSXg-] found.
Track | CTDB Status
  1   | (2/3) Accurately ripped
  2   | (2/3) Accurately ripped
  3   | (2/3) Accurately ripped
  4   | (2/3) Accurately ripped
  5   | (2/3) Accurately ripped
  6   | (2/3) Accurately ripped
  7   | (2/3) Accurately ripped
  8   | (2/3) Accurately ripped
  9   | (2/3) Accurately ripped
 10   | (2/3) Accurately ripped
 11   | (2/3) Accurately ripped
 12   | (2/3) Accurately ripped
 13   | (2/3) Accurately ripped
 14   | (2/3) Accurately ripped
 15   | (2/3) Accurately ripped
 16   | (2/3) Accurately ripped
 17   | (2/3) Accurately ripped
 18   | (2/3) Accurately ripped
 19   | (2/3) Accurately ripped
 20   | (2/3) Accurately ripped
 21   | (2/3) Accurately ripped
 22   | (2/3) Accurately ripped
 23   | (2/3) Accurately ripped
 24   | (2/3) Accurately ripped
 25   | (2/3) Accurately ripped
 26   | (2/3) Accurately ripped
 27   | (2/3) Accurately ripped
[AccurateRip ID: 0041398e-04f2c862-97101c1b] found.
Track   [  CRC   |   V2   ] Status
 01     [429d813a|34112b3d] (14+06/22) Accurately ripped
 02     [e3f0eb47|6d18bbac] (13+06/21) Accurately ripped
 03     [2259f17a|67f273bc] (13+06/21) Accurately ripped
 04     [f0196e2d|c95ade9a] (13+06/21) Accurately ripped
 05     [68318d74|89c63172] (13+06/21) Accurately ripped
 06     [0f101dab|7c87f024] (13+06/21) Accurately ripped
 07     [c4989a08|efdf67c7] (13+06/21) Accurately ripped
 08     [60686961|4101c28f] (13+06/21) Accurately ripped
 09     [c2850fc1|39eb7b6e] (13+06/21) Accurately ripped
 10     [562f875c|0c240807] (13+06/21) Accurately ripped
 11     [abc61e08|0ae318a5] (13+06/23) Accurately ripped
 12     [3ad624d2|34fba50d] (13+06/21) Accurately ripped
 13     [c6415c7c|0d2d1c16] (14+06/24) Accurately ripped
 14     [7d937cbc|9da27ffa] (13+06/21) Accurately ripped
 15     [c75e29f5|fdba99f0] (13+06/21) Accurately ripped
 16     [e20e128c|93052ac6] (13+06/21) Accurately ripped
 17     [fb0f84f7|6b8c3aca] (13+06/21) Accurately ripped
 18     [7bc2da7c|10f56a5a] (13+06/21) Accurately ripped
 19     [59bace9a|20583738] (13+06/21) Accurately ripped
 20     [6d6445b6|f560cf40] (13+06/21) Accurately ripped
 21     [23400bfe|440f0fb5] (13+06/21) Accurately ripped
 22     [40924c5c|88778869] (13+05/20) Accurately ripped
 23     [5c01fb80|e7436770] (13+06/21) Accurately ripped
 24     [4edf05d0|d829a750] (13+06/21) Accurately ripped
 25     [fff270bf|43508b27] (13+05/20) Accurately ripped
 26     [8dd7b37b|7a0d8e2e] (13+05/20) Accurately ripped
 27     [707ca8a3|1c8f817b] (13+05/20) Accurately ripped
Offsetted by 564:
 01     [747537a7] (00/22) No match (V2 was not tested)
 02     [ae429564] (00/21) No match (V2 was not tested)
 03     [d4ebddc0] (00/21) No match (V2 was not tested)
 04     [e8330491] (00/21) No match (V2 was not tested)
 05     [997334c8] (00/21) No match (V2 was not tested)
 06     [84bd4d14] (00/21) No match (V2 was not tested)
 07     [8a7277d5] (00/21) No match (V2 was not tested)
 08     [c6f62b1e] (00/21) No match (V2 was not tested)
 09     [71f5c39c] (00/21) No match (V2 was not tested)
 10     [2a876a66] (00/21) No match (V2 was not tested)
 11     [d436de95] (02/23) Accurately ripped
 12     [42089a9a] (00/21) No match (V2 was not tested)
 13     [88e89420] (02/24) Accurately ripped
 14     [af9b1a05] (00/21) No match (V2 was not tested)
 15     [8e4e21c5] (00/21) No match (V2 was not tested)
 16     [fefaf9d6] (00/21) No match (V2 was not tested)
 17     [e2a380c7] (00/21) No match (V2 was not tested)
 18     [aa57272c] (00/21) No match (V2 was not tested)
 19     [7ce52ea8] (00/21) No match (V2 was not tested)
 20     [74ab4898] (00/21) No match (V2 was not tested)
 21     [251dfc96] (00/21) No match (V2 was not tested)
 22     [28fcf329] (00/20) No match (V2 was not tested)
 23     [3ba4f3ab] (00/21) No match (V2 was not tested)
 24     [2e055f0d] (00/21) No match (V2 was not tested)
 25     [b78597c0] (00/20) No match (V2 was not tested)
 26     [71d184e4] (00/20) No match (V2 was not tested)
 27     [eb433424] (00/20) No match (V2 was not tested)

Track Peak [ CRC32  ] [W/O NULL] [  LOG   ]
 --  100.0 [50F39DAB] [E598E4DC]           
 01   89.5 [DDB60E4D] [30C656AF]  W/O NULL 
 02   91.2 [5E261E7F] [8C73A6B7]  W/O NULL 
 03   99.9 [06D5B559] [97ABCF14]  W/O NULL 
 04   97.1 [A3D65F6D] [A8A93EBA]  W/O NULL 
 05   95.0 [35BDBFD2] [8B33A209]  W/O NULL 
 06   85.3 [E3A1EE4B] [0251BBE5]  W/O NULL 
 07   93.1 [DF9BFF42] [94083AFE]  W/O NULL 
 08   65.7 [074096AD] [11B92EA5]  W/O NULL 
 09  100.0 [0E7A1FB9] [AF8554C4]  W/O NULL 
 10  100.0 [1B5457B7] [1AE84773]  W/O NULL 
 11   85.0 [668C36E1] [B0BAEB2A]  W/O NULL 
 12   99.4 [CC2506BF] [1EF7396D]  W/O NULL 
 13   98.9 [60B878F1] [589FDA5F]  W/O NULL 
 14   98.0 [2464DE6B] [DD06C02C]  W/O NULL 
 15  100.0 [EA08CC3D] [7CDCE734]  W/O NULL 
 16   95.0 [B9109432] [42228AFD]  W/O NULL 
 17   99.9 [EA44F9CE] [719877BE]  W/O NULL 
 18   95.2 [E8E30BFE] [AC82A015]  W/O NULL 
 19   89.4 [7B449360] [BF197923]  W/O NULL 
 20   72.5 [9B54BF58] [01248236]  W/O NULL 
 21   97.2 [1F0B3653] [36B4FC5E]  W/O NULL 
 22   90.0 [7CC1358B] [0CBFD702]  W/O NULL 
 23   95.7 [6D50983C] [13D79BAA]  W/O NULL 
 24   80.6 [4BC4EA11] [3480A8A5]  W/O NULL 
 25   99.8 [F290A49B] [0FDBB18A]  W/O NULL 
 26   94.7 [3FB67C47] [F1F1FE67]  W/O NULL 
 27   85.1 [82A2DFC3] [4ECABD23]  W/O NULL 



Create a new paste based on this one


Comments: