[ create a new paste ] login | about

Link: http://codepad.org/OlDdNsNn    [ raw code | fork ]

Plain Text, pasted on Sep 21:
foobar2000 1.3.17 / Dynamic Range Meter 1.1.1
log date: 2018-09-21 10:43:28

--------------------------------------------------------------------------------
Analyzed: RICHARD THOMPSON / Rumor And Sigh
--------------------------------------------------------------------------------

DR         Peak         RMS     Duration Track
--------------------------------------------------------------------------------
DR13      -8.08 dB   -22.83 dB      3:37 01-Read About Love
DR13      -6.02 dB   -21.97 dB      3:22 02-I Feel So Good
DR15      -6.66 dB   -24.73 dB      4:09 03-I Misunderstood
DR13      -7.64 dB   -22.99 dB      4:25 04-Grey Walls
DR14      -6.29 dB   -22.48 dB      4:06 05-You Dream Too Much
DR15      -6.97 dB   -25.30 dB      5:01 06-Why Must I Plead
DR12     -11.25 dB   -25.48 dB      4:44 07-1952 Vincent Black Lightning
DR15      -6.74 dB   -23.95 dB      4:49 08-Backlash Love Affair
DR13      -8.72 dB   -24.64 dB      4:36 09-Mystery Wind
DR14      -6.79 dB   -23.51 dB      4:27 10-Don't Sit On My Jimmy Shands
DR13      -6.97 dB   -22.32 dB      4:12 11-Keep Your Distance
DR13      -7.37 dB   -21.58 dB      4:59 12-Mother Knows Best
DR13     -10.18 dB   -27.32 dB      4:44 13-God Loves A Drunk
DR13      -7.99 dB   -24.22 dB      4:27 14-Psycho Street
--------------------------------------------------------------------------------

Number of tracks:  14
Official DR value: DR14

Samplerate:        2822400 Hz / PCM Samplerate: 176400 Hz
Channels:          2
Bits per sample:   1
Bitrate:           5645 kbps
Codec:             DSD64
================================================================================




Create a new paste based on this one


Comments: