[ create a new paste ] login | about

Link: http://codepad.org/OloWIeon    [ raw code | fork ]

Plain Text, pasted on Nov 20:
Exact Audio Copy V1.3 from 2. September 2016

EAC extraction logfile from 17. November 2017, 17:13

Electric Light Orchestra / Wembley or Bust

Used drive  : PLEXTOR BD-R  PX-LB950SA   Adapter: 1  ID: 1

Read mode               : Secure
Utilize accurate stream : Yes
Defeat audio cache      : Yes
Make use of C2 pointers : No

Read offset correction                      : 6
Overread into Lead-In and Lead-Out          : No
Fill up missing offset samples with silence : Yes
Delete leading and trailing silent blocks   : No
Null samples used in CRC calculations       : Yes
Used interface                              : Native Win32 interface for Win NT & 2000

Used output format              : User Defined Encoder
Selected bitrate                : 128 kBit/s
Quality                         : High
Add ID3 tag                     : No
Command line compressor         : C:\Program Files (x86)\Exact Audio Copy\Flac\flac.exe
Additional command line options : -V -8 -T "Date=%year%" -T "Genre=%genre%" %source%


TOC of the extracted CD

     Track |   Start  |  Length  | Start sector | End sector 
    ---------------------------------------------------------
        1  |  0:00.00 |  4:48.40 |         0    |    21639   
        2  |  4:48.40 |  4:45.10 |     21640    |    43024   
        3  |  9:33.50 |  4:07.35 |     43025    |    61584   
        4  | 13:41.10 |  3:54.14 |     61585    |    79148   
        5  | 17:35.24 |  4:09.63 |     79149    |    97886   
        6  | 21:45.12 |  3:44.32 |     97887    |   114718   
        7  | 25:29.44 |  4:55.65 |    114719    |   136908   
        8  | 30:25.34 |  4:00.53 |    136909    |   154961   
        9  | 34:26.12 |  4:14.70 |    154962    |   174081   
       10  | 38:41.07 |  5:11.09 |    174082    |   197415   
       11  | 43:52.16 |  6:10.39 |    197416    |   225204   


Range status and errors

Selected range

     Filename C:\Jeff Lynne's ELO - Wembley or Bust - 2017\CD2\Electric Light Orchestra - Wembley or Bust.wav

     Peak level 100.0 %
     Extraction speed 3.2 X
     Range quality 100.0 %
     Test CRC 93DA952F
     Copy CRC 93DA952F
     Copy OK

No errors occurred

 
AccurateRip summary
 
Track  1  not present in database
Track  2  not present in database
Track  3  not present in database
Track  4  not present in database
Track  5  not present in database
Track  6  not present in database
Track  7  not present in database
Track  8  not present in database
Track  9  not present in database
Track 10  not present in database
Track 11  not present in database
 
None of the tracks are present in the AccurateRip database

End of status report

---- CUETools DB Plugin V2.1.6

[CTDB TOCID: VZhIIx16GnXaaLUvtQSnL.j.AFw-] found
Submit result: VZhIIx16GnXaaLUvtQSnL.j.AFw- has been confirmed
Track | CTDB Status
  1   | (3/3) Accurately ripped
  2   | (3/3) Accurately ripped
  3   | (3/3) Accurately ripped
  4   | (3/3) Accurately ripped
  5   | (3/3) Accurately ripped
  6   | (3/3) Accurately ripped
  7   | (3/3) Accurately ripped
  8   | (3/3) Accurately ripped
  9   | (3/3) Accurately ripped
 10   | (3/3) Accurately ripped
 11   | (3/3) Accurately ripped


==== Log checksum 84B0DA5A6A72005088E2E7BCB753131FB0D433A7505B710E481DAB9574712833 ====



Create a new paste based on this one


Comments: