[ create a new paste ] login | about

Link: http://codepad.org/OltDXZb0    [ raw code | fork ]

Plain Text, pasted on Dec 19:
[CUETools log; Date: 12/19/2018 7:56:02 AM; Version: 2.1.5]
[CTDB TOCID: y.HEjmxs3hUhINu8H9oRhtW2UYY-] found.
Track | CTDB Status
  1   | (72/72) Accurately ripped
  2   | (72/72) Accurately ripped
  3   | (72/72) Accurately ripped
  4   | (72/72) Accurately ripped
  5   | (72/72) Accurately ripped
  6   | (72/72) Accurately ripped
  7   | (72/72) Accurately ripped
  8   | (72/72) Accurately ripped
[AccurateRip ID: 000e4dc6-005e155a-5f0a4908] found.
Track   [  CRC   |   V2   ] Status
 01     [e5ce22cb|38bdda3f] (00+14/14) Accurately ripped
 02     [b47bd12b|9aa9f819] (00+14/14) Accurately ripped
 03     [4e05dfae|050c2a4a] (00+14/14) Accurately ripped
 04     [324ff12f|55963f70] (00+14/14) Accurately ripped
 05     [23ef0251|e10d1091] (00+14/14) Accurately ripped
 06     [eeb5a6e7|ae6a03cb] (00+14/14) Accurately ripped
 07     [2ba39b40|bcee69f1] (00+14/14) Accurately ripped
 08     [ac8d6a62|66b18bf3] (00+14/14) Accurately ripped

Track Peak [ CRC32  ] [W/O NULL] [  LOG   ]
 --   98.0 [C2625F67] [89E18E54]   CRC32   
 01   97.5 [BBC25B51] [8B14480F]           
 02   97.6 [85387783] [97A37413]           
 03   97.5 [8E723C98] [3B41C8E2]           
 04   97.3 [E878B5E4] [F7DA72FB]           
 05   97.4 [3902E655] [CD30CF1E]           
 06   97.2 [FED06B91] [D62626B7]           
 07   97.4 [17D8A0F4] [40E3E54E]           
 08   98.0 [4706A543] [5C949294]           



Create a new paste based on this one


Comments: