[ create a new paste ] login | about

Link: http://codepad.org/On4ytPRh    [ raw code | fork ]

Plain Text, pasted on Dec 4:
CD-QUALITY
::::::::::

foobar2000 1.6 / Dynamic Range Meter 1.1.1
log date: 2020-12-04 01:07:20

--------------------------------------------------------------------------------
Analyzed: The Smashing Pumpkins / CYR
--------------------------------------------------------------------------------

DR         Peak         RMS     Duration Track
--------------------------------------------------------------------------------
DR10       0.00 dB   -10.98 dB      4:24 01-The Colour Of Love
DR7        0.00 dB    -9.19 dB      3:14 02-Confessions Of A Dopamine Addict
DR7        0.00 dB    -8.24 dB      4:03 03-Cyr
DR9        0.00 dB   -11.57 dB      3:22 04-Dulcet In E
DR8        0.00 dB    -9.43 dB      3:46 05-Wrath
DR8        0.00 dB   -10.47 dB      3:48 06-Ramona
DR7        0.00 dB    -8.36 dB      3:50 07-Anno Satana
DR7        0.00 dB    -9.21 dB      3:17 08-Birch Grove
DR6        0.00 dB    -8.16 dB      3:44 09-Wyttch
DR7        0.00 dB   -10.65 dB      4:10 10-Starrcraft
DR6        0.00 dB    -9.70 dB      3:19 11-Purple Blood
DR7        0.00 dB    -7.82 dB      3:31 12-Save Your Tears
DR9        0.00 dB   -10.34 dB      3:23 13-Telegenix
DR9        0.00 dB   -10.06 dB      4:42 14-Black Forest, Black Hills
DR7        0.00 dB    -9.22 dB      3:42 15-Adrennalynne
DR7        0.00 dB    -9.98 dB      3:11 16-Haunted
DR8        0.00 dB    -9.09 dB      3:24 17-The Hidden Sun
DR8        0.00 dB    -8.91 dB      3:02 18-Schaudenfreud
DR8        0.00 dB    -9.70 dB      2:50 19-Tyger, Tyger
DR8        0.00 dB    -9.58 dB      3:33 20-Minerva
--------------------------------------------------------------------------------

Number of tracks:  20
Official DR value: DR8

Samplerate:        44100 Hz
Channels:          2
Bits per sample:   16
Bitrate:           986 kbps
Codec:             FLAC
================================================================================



HI-RES
::::::

foobar2000 1.6 / Dynamic Range Meter 1.1.1
log date: 2020-12-04 00:54:45

--------------------------------------------------------------------------------
Analyzed: The Smashing Pumpkins / CYR
--------------------------------------------------------------------------------

DR         Peak         RMS     Duration Track
--------------------------------------------------------------------------------
DR10       0.00 dB   -10.97 dB      4:24 01-The Colour Of Love
DR7        0.00 dB    -9.19 dB      3:14 02-Confessions Of A Dopamine Addict
DR7        0.00 dB    -8.28 dB      4:03 03-Cyr
DR9        0.00 dB   -11.56 dB      3:22 04-Dulcet In E
DR8        0.00 dB    -9.43 dB      3:46 05-Wrath
DR8        0.00 dB   -10.52 dB      3:48 06-Ramona
DR7        0.00 dB    -8.36 dB      3:50 07-Anno Satana
DR7        0.00 dB    -9.20 dB      3:17 08-Birch Grove
DR6        0.00 dB    -8.15 dB      3:44 09-Wyttch
DR7        0.00 dB   -10.65 dB      4:10 10-Starrcraft
DR6        0.00 dB    -9.70 dB      3:19 11-Purple Blood
DR7        0.00 dB    -7.81 dB      3:31 12-Save Your Tears
DR9        0.00 dB   -10.34 dB      3:23 13-Telegenix
DR9        0.00 dB   -10.06 dB      4:42 14-Black Forest, Black Hills
DR7        0.00 dB    -9.21 dB      3:42 15-Adrennalynne
DR7        0.00 dB    -9.98 dB      3:11 16-Haunted
DR8        0.00 dB    -9.09 dB      3:24 17-The Hidden Sun
DR8        0.00 dB    -8.90 dB      3:02 18-Schaudenfreud
DR8        0.00 dB    -9.70 dB      2:50 19-Tyger, Tyger
DR8        0.00 dB    -9.57 dB      3:33 20-Minerva
--------------------------------------------------------------------------------

Number of tracks:  20
Official DR value: DR8

Samplerate:        96000 Hz
Channels:          2
Bits per sample:   24
Bitrate:           3026 kbps
Codec:             FLAC
================================================================================





Create a new paste based on this one


Comments: