[ create a new paste ] login | about

Link: http://codepad.org/On8jlFhL    [ raw code | fork ]

Plain Text, pasted on Nov 22:
foobar2000 1.4.6 / Dynamic Range Meter 1.1.1
log date: 2019-11-22 09:56:00

--------------------------------------------------------------------------------
Analyzed: Rod Stewart, Robbie Williams / You're In My Heart: Rod Stewart (with The Royal Philharmonic Orchestra) (1)
          Rod Stewart / You're In My Heart: Rod Stewart (with The Royal Philharmonic Orchestra) (2-22)
--------------------------------------------------------------------------------

DR         Peak         RMS     Duration Track
--------------------------------------------------------------------------------
DR7        0.00 dB    -8.10 dB      4:22 11-It Takes Two (with Robbie Williams)
DR9        0.00 dB   -11.06 dB      5:47 01-Maggie May
DR9        0.00 dB   -11.03 dB      3:55 02-Reason To Believe
DR7        0.00 dB    -9.65 dB      4:10 03-Handbags and Gladrags
DR9        0.00 dB   -10.35 dB      5:27 04-Sailing
DR7        0.00 dB    -8.28 dB      4:13 05-Tonight's The Night (Gonna Be Alright)
DR8        0.00 dB    -9.46 dB      6:17 06-The Killing Of Georgie Pts. I & II
DR10      -0.04 dB   -11.92 dB      5:42 07-I Don't Want To Talk About It
DR8        0.00 dB   -10.58 dB      4:41 08-The First Cut Is The Deepest
DR8        0.00 dB   -10.70 dB      4:38 09-You're in My Heart (The Final Acclaim)
DR7        0.00 dB    -8.93 dB      6:26 10-I Was Only Joking
DR7        0.00 dB    -8.24 dB      4:42 12-Stay With Me
DR8        0.00 dB    -9.17 dB      4:57 13-Young Turks
DR8        0.00 dB    -9.04 dB      4:39 14-What Am I Gonna Do (I'm So In Love With You)
DR7        0.00 dB    -8.23 dB      5:23 15-Every Beat Of My Heart
DR7        0.00 dB    -9.54 dB      4:54 16-Forever Young
DR7        0.00 dB   -10.67 dB      5:04 17-Downtown Train
DR9        0.00 dB   -11.90 dB      4:17 18-Rhythm of My Heart
DR7        0.00 dB    -8.65 dB      4:05 19-Have I Told You Lately
DR9       -0.02 dB   -11.67 dB      6:32 20-Tom Traubert's Blues (Waltzing Matilda)
DR9        0.00 dB   -11.72 dB      5:04 21-If We Fall In Love Tonight
DR7        0.00 dB    -8.45 dB      4:11 22-Stop Loving Her Today
--------------------------------------------------------------------------------

Number of tracks:  22
Official DR value: DR8

Samplerate:        44100 Hz
Channels:          2
Bits per sample:   16
Bitrate:           950 kbps
Codec:             FLAC
================================================================================




Create a new paste based on this one


Comments: