[ create a new paste ] login | about

Link: http://codepad.org/OqbyoPyl    [ raw code | fork ]

Plain Text, pasted on Jan 28:
foobar2000 1.5 / Dynamic Range Meter 1.1.1
log date: 2020-01-28 03:12:41

--------------------------------------------------------------------------------
Analyzed: Joe Cocker / With A Little Help From My Friends
--------------------------------------------------------------------------------

DR         Peak         RMS     Duration Track
--------------------------------------------------------------------------------
DR11      -0.05 dB   -14.57 dB      4:11 01-Feeling Alright
DR12      -0.24 dB   -15.04 dB      3:27 02-Bye Bye Blackbird
DR12      -0.05 dB   -14.70 dB      3:23 03-Change In Louise
DR11      -2.83 dB   -15.53 dB      2:14 04-Marjorine
DR11      -2.68 dB   -16.58 dB      5:17 05-Just Like A Woman
DR12      -0.05 dB   -14.87 dB      3:58 06-Do I Still Figure In Your Life
DR11      -1.15 dB   -14.79 dB      3:16 07-Sandpaper Cadillac
DR11      -1.80 dB   -15.60 dB      4:41 08-Don't Let Me Be Misunderstood
DR11      -0.05 dB   -14.91 dB      5:09 09-With A Little Help From My Friends
DR11      -1.72 dB   -16.28 dB      4:34 10-I Shall Be Released
--------------------------------------------------------------------------------

Number of tracks:  10
Official DR value: DR11

Samplerate:        96000 Hz
Channels:          2
Bits per sample:   24
Bitrate:           2823 kbps
Codec:             FLAC
================================================================================




Create a new paste based on this one


Comments: