[ create a new paste ] login | about

Link: http://codepad.org/OrtWppwH    [ raw code | fork ]

Plain Text, pasted on Aug 31:
foobar2000 1.3.17 / Dynamic Range Meter 1.1.1
log date: 2018-08-30 19:40:24

--------------------------------------------------------------------------------
Analyzed: Gilbert O'Sullivan / Gilbert O'Sullivan
--------------------------------------------------------------------------------

DR         Peak         RMS     Duration Track
--------------------------------------------------------------------------------
DR10       0.00 dB   -12.49 dB      3:11 01-At the End of the Day
DR10      -0.09 dB   -11.54 dB      3:16 02-The Same the Whole World Over
DR9       -0.10 dB   -11.37 dB      2:51 03-Love How You Leave Me
DR11       0.00 dB   -12.70 dB      3:40 04-What Is It About My Girl
DR10      -0.10 dB   -12.63 dB      3:35 05-I'll Never Love Again
DR10      -0.09 dB   -11.62 dB      3:35 06-Where Did You Go To
DR10      -0.09 dB   -12.80 dB      5:52 07-Dansette Dreams and 45's
DR11      -0.06 dB   -12.02 dB      2:45 08-No Head for Figures but Yours
DR10       0.00 dB   -12.52 dB      2:43 09-Penny Drops
DR10       0.00 dB   -11.89 dB      2:49 10-This Riff
DR9       -0.03 dB   -11.35 dB      3:39 11-The Mind Boggles
DR10       0.00 dB   -12.16 dB      2:39 12-For the Record
--------------------------------------------------------------------------------

Number of tracks:  12
Official DR value: DR10

Samplerate:        44100 Hz
Channels:          2
Bits per sample:   16
Bitrate:           735 kbps
Codec:             FLAC
================================================================================




Create a new paste based on this one


Comments: