[ create a new paste ] login | about

Link: http://codepad.org/Ostx7hdu    [ raw code | fork ]

Plain Text, pasted on Jul 19:
foobar2000 1.3.17 / Dynamic Range Meter 1.1.1
log date: 2018-07-18 14:32:16

--------------------------------------------------------------------------------
Analyzed: Public Image Limited / Public Image - First Issue
--------------------------------------------------------------------------------

DR         Peak         RMS     Duration Track
--------------------------------------------------------------------------------
DR11      -5.26 dB   -17.75 dB      9:08 01-Theme
DR14     -10.43 dB   -26.89 dB      1:26 02-Religion I
DR13      -3.75 dB   -19.65 dB      5:48 03-Religion II
DR11      -4.29 dB   -16.97 dB      6:03 04-Annalisa
DR11      -4.56 dB   -16.89 dB      2:59 05-Public Image
DR10      -5.30 dB   -17.04 dB      3:38 06-Low Life
DR12      -5.44 dB   -19.72 dB      2:55 07-Attack
DR15      -4.73 dB   -20.79 dB      7:48 08-Fodderstompf
--------------------------------------------------------------------------------

Number of tracks:  8
Official DR value: DR12

Samplerate:        2822400 Hz / PCM Samplerate: 176400 Hz
Channels:          2
Bits per sample:   1
Bitrate:           5645 kbps
Codec:             DSD64
================================================================================




Create a new paste based on this one


Comments: