[ create a new paste ] login | about

Link: http://codepad.org/OwlMHqDN    [ raw code | fork ]

Plain Text, pasted on May 1:
foobar2000 1.4.1 / Dynamic Range Meter 1.1.1
log date: 2019-04-30 23:09:41

--------------------------------------------------------------------------------
Analyzed: Charles Earland / Jazz in an RnB Groove, Vol 2 (1-2)
          David "Fathead" Newman / Jazz in an RnB Groove, Vol 2 (3)
--------------------------------------------------------------------------------

DR         Peak         RMS     Duration Track
--------------------------------------------------------------------------------
DR9       -5.50 dB   -16.76 dB     10:26 01-Pick Up The Pieces
DR11      -5.78 dB   -18.95 dB      7:40 05-Put It Where You Want It
DR10      -6.04 dB   -18.70 dB      5:42 10-Hit The Road Jack
--------------------------------------------------------------------------------

Number of tracks:  3
Official DR value: DR10

Samplerate:        2822400 Hz / PCM Samplerate: 176400 Hz
Channels:          2
Bits per sample:   1
Bitrate:           5645 kbps
Codec:             DSD64
================================================================================

--------------------------------------------------------------------------------
Analyzed: Eric Alexander / Jazz in an RnB Groove, Vol 2 (1)
          Ernie Andrews / Jazz in an RnB Groove, Vol 2 (2)
--------------------------------------------------------------------------------

DR         Peak         RMS     Duration Track
--------------------------------------------------------------------------------
DR12      -5.15 dB   -19.31 dB      6:28 03-Where Is The Love
DR12      -5.74 dB   -19.88 dB      3:06 06-She's Got The Blues For Sale
--------------------------------------------------------------------------------

Number of tracks:  2
Official DR value: DR12

Samplerate:        2822400 Hz / PCM Samplerate: 176400 Hz
Channels:          2
Bits per sample:   1
Bitrate:           5645 kbps
Codec:             DSD64
================================================================================

--------------------------------------------------------------------------------
Analyzed: Irene Reid / Jazz in an RnB Groove, Vol 2 (1)
          Jesse Thomas / Jazz in an RnB Groove, Vol 2 (2)
--------------------------------------------------------------------------------

DR         Peak         RMS     Duration Track
--------------------------------------------------------------------------------
DR9       -5.64 dB   -16.82 dB      4:08 04-Your Mind Is On Vacation
DR11      -5.89 dB   -18.42 dB      3:13 09-Ya-Ya
--------------------------------------------------------------------------------

Number of tracks:  2
Official DR value: DR10

Samplerate:        2822400 Hz / PCM Samplerate: 176400 Hz
Channels:          2
Bits per sample:   1
Bitrate:           5645 kbps
Codec:             DSD64
================================================================================

--------------------------------------------------------------------------------
Statistics for: 07-Tu-Way-Pock-E-Way
Number of samples: 731641344
Duration: 4:19 
--------------------------------------------------------------------------------

                 Left              Right

Peak Value:     -5.93 dB   ---     -5.71 dB   
Avg RMS:       -17.23 dB   ---    -16.95 dB   
DR channel:     10.49 dB   ---     10.33 dB   
--------------------------------------------------------------------------------

Official DR Value: DR10

Samplerate:        2822400 Hz / PCM Samplerate: 176400 Hz
Channels:          2
Bits per sample:   1
Bitrate:           5645 kbps
Codec:             DSD64
================================================================================
--------------------------------------------------------------------------------
Analyzed: Melvin Sparks / Jazz in an RnB Groove, Vol 2 (1)
          Winard Harper / Jazz in an RnB Groove, Vol 2 (2)
--------------------------------------------------------------------------------

DR         Peak         RMS     Duration Track
--------------------------------------------------------------------------------
DR7       -7.35 dB   -16.00 dB      6:31 02-My Girl
DR10      -5.55 dB   -17.92 dB      9:50 08-Dat Dere
--------------------------------------------------------------------------------

Number of tracks:  2
Official DR value: DR9

Samplerate:        2822400 Hz / PCM Samplerate: 176400 Hz
Channels:          2
Bits per sample:   1
Bitrate:           5645 kbps
Codec:             DSD64
================================================================================




Create a new paste based on this one


Comments: