[ create a new paste ] login | about

Link: http://codepad.org/P2QMOkN8    [ raw code | fork ]

Plain Text, pasted on Dec 7:
foobar2000 1.3.17 / Dynamic Range Meter 1.1.1
log date: 2018-12-07 11:03:41

--------------------------------------------------------------------------------
Analyzed: Kate Bush / Lionheart (1978) - Remastered Part I
--------------------------------------------------------------------------------

DR         Peak         RMS     Duration Track
--------------------------------------------------------------------------------
DR13      -0.75 dB   -16.15 dB      3:37 01-Symphony In Blue (2018 Remaster)
DR13       0.00 dB   -17.38 dB      3:47 02-In Search Of Peter Pan (2018 Remaster)
DR12      -1.02 dB   -17.16 dB      4:01 03-Wow (2018 Remaster)
DR12      -0.20 dB   -16.70 dB      3:16 04-Don't Push Your Foot On The Heartbrake (2018 Remaster)
DR11      -3.91 dB   -18.45 dB      3:12 05-Oh England My Lionheart (2018 Remaster)
DR13      -0.30 dB   -15.41 dB      3:14 06-Full House (2018 Remaster)
DR13      -3.98 dB   -22.13 dB      3:36 07-In The Warm Room (2018 Remaster)
DR14      -0.34 dB   -17.99 dB      3:57 08-Kashka From Baghdad (2018 Remaster)
DR12      -3.92 dB   -18.52 dB      3:39 09-Coffee Homeground (2018 Remaster)
DR13      -0.05 dB   -16.57 dB      4:40 10-Hammer Horror (2018 Remaster)
--------------------------------------------------------------------------------

Number of tracks:  10
Official DR value: DR13

Samplerate:        44100 Hz
Channels:          2
Bits per sample:   16
Bitrate:           751 kbps
Codec:             FLAC
================================================================================




Create a new paste based on this one


Comments: