[ create a new paste ] login | about

Link: http://codepad.org/P6QzYNv4    [ raw code | fork ]

Plain Text, pasted on Feb 5:
1
2
3
4
5
6
7
8
9
10
11
12
13
14
15
16
17
18
19
20
21
22
23
24
25
26
27
28
29
30
31
32
33
34
35
36
37
38
39
40
41
42
43
44
45
46
47
48
49
50
51
52
53
54
55
56
57
58
59
60
61
62
63
64
65
66
67
68
69
70
71
72
73
74
75
76
77
78
79
80
81
82
83
84
85
86
87
88
89
90
91
92
93
94
95
96
97
98
99
100
101
102
103
104
105
106
107
108
109
110
111
112
113
114
115
116
117
118
119
120
121
122
123
124
125
126
127
128
129
130
131
132
133
134
135
136
137
138
139
140
141
142
143
144
145
146
147
148
149
150
151
152
153
154
155
156
157
158
159
160
161
162
163
164
165
166
167
168
169
170
171
172
173
174
175
176
177
178
179
180
181
182
183
184
185
186
187
188
189
190
191
192
193
194
195
196
197
198
199
200
201
202
203
204
205
206
207
208
209
210
211
212
213
214
215
216
217
218
219
220
221
222
223
224
225
226
227
228
229
230
231
232
233
234
235
236
237
238
239
240
241
242
243
244
245
246
247
248
249
250
251
252
253
254
255
256
257
258
259
260
261
262
263
264
265
266
267
268
269
270
271
272
273
274
275
276
277
278
279
280
281
282
283
284
285
286
287
288
289
290
291
292
293
294
295
296
297
298
299
300
301
302
303
304
305
306
307
308
309
310
311
312
313
314
315
316
317
318
319
320
321
322
323
324
325
326
327
328
329
330
331
332
333
334
335
336
337
338
339
340
341
342
343
344
345
346
347
348
349
350
351
352
353
354
355
356
357
358
359
360
361
362
363
364
365
366
367
368
369
370
371
372
373
374
375
376
377
378
379
380
381
382
383
384
385
386
387
388
389
390
391
392
393
394
395
396
397
398
399
400
401
402
403
404
405
406
407
408
409
410
411
412
413
414
415
416
417
418
419
420
421
422
423
424
425
426
427
428
429
430
431
432
433
434
435
436
437
438
439
440
441
442
443
444
445
446
447
448
449
450
451
452
453
454
455
456
457
458
459
460
461
462
463
464
465
466
467
468
469
470
471
472
473
474
475
476
477
478
479
480
481
482
483
484
485
486
487
488
489
490
491
492
493
494
495
496
497
498
499
500
501
502
503
504
505
506
507
508
509
510
511
512
513
514
515
516
517
518
519
520
521
522
523
524
525
526
527
528
529
530
531
532
533
534
535
536
537
538
539
540
541
542
543
544
Encore (1958) {2020 Reissue}
->
foobar2000 1.5 / Dynamic Range Meter 1.1.1
log date: 2020-02-05 17:50:22

--------------------------------------------------------------------------------
Analyzed: Sam Cooke / Encore
--------------------------------------------------------------------------------

DR         Peak         RMS     Duration Track
--------------------------------------------------------------------------------
DR7       -0.91 dB   -11.05 dB      1:55 01-Oh, Look At Me Now
DR10      -0.61 dB   -13.10 dB      2:17 02-Someday
DR8       -0.91 dB   -11.12 dB      3:07 03-Along The Navajo Trail
DR8       -0.91 dB   -10.63 dB      1:28 04-Running Wild
DR7       -0.71 dB    -9.57 dB      3:24 05-Ac-cent-tchu-ate The Positive
DR8       -0.20 dB    -9.99 dB      2:49 06-Mary, Mary Lou
DR8       -0.91 dB   -12.24 dB      2:45 07-When I Fall In Love
DR8       -0.91 dB   -11.32 dB      2:16 08-I Cover The Waterfront
DR8       -0.91 dB   -12.69 dB      2:21 09-My Foolish Heart
DR9       -0.91 dB   -13.39 dB      3:23 10-Today I Sing The Blues
DR7       -0.91 dB   -12.27 dB      2:34 11-The Gypsy
DR10      -0.81 dB   -14.62 dB      3:12 12-It's The Talk Of The Town
--------------------------------------------------------------------------------

Number of tracks:  12
Official DR value: DR8

Samplerate:        96000 Hz
Channels:          2
Bits per sample:   24
Bitrate:           2199 kbps
Codec:             FLAC
================================================================================
->
=========================================================================================================================================================
->
Songs By Sam Cooke (1958) {2020 Reissue}
->
foobar2000 1.5 / Dynamic Range Meter 1.1.1
log date: 2020-02-05 17:50:36

--------------------------------------------------------------------------------
Analyzed: Sam Cooke / Songs By Sam Cooke
--------------------------------------------------------------------------------

DR         Peak         RMS     Duration Track
--------------------------------------------------------------------------------
DR7       -0.51 dB    -9.22 dB      2:46 01-You Send Me
DR8       -0.51 dB   -10.48 dB      2:35 02-The Lonesome Road
DR8       -0.51 dB   -13.14 dB      3:33 03-Tammy
DR7       -0.51 dB   -10.50 dB      2:41 04-Ol' Man River
DR8       -0.51 dB   -10.67 dB      2:42 05-Moonlight In Vermont
DR8       -0.51 dB   -10.80 dB      2:59 06-Canadian Sunset
DR9       -0.50 dB   -10.16 dB      2:29 07-Summertime (Part 2)
DR7       -0.20 dB    -9.16 dB      2:02 08-Around The World
DR9       -0.51 dB   -11.15 dB      2:02 09-Ain't Misbehavin'
DR9       -0.51 dB   -12.42 dB      2:19 10-The Bells Of St. Mary's
DR7       -0.20 dB   -11.30 dB      2:41 11-So Long
DR9       -0.51 dB   -13.06 dB      2:50 12-Danny Boy
DR7       -0.51 dB   -12.17 dB      2:24 13-That Lucky Old Sun
--------------------------------------------------------------------------------

Number of tracks:  13
Official DR value: DR8

Samplerate:        96000 Hz
Channels:          2
Bits per sample:   24
Bitrate:           2220 kbps
Codec:             FLAC
================================================================================
->
=========================================================================================================================================================
->
Hit Kit (1959) {2020 Reissue}
->
foobar2000 1.5 / Dynamic Range Meter 1.1.1
log date: 2020-02-05 17:50:55

--------------------------------------------------------------------------------
Analyzed: Sam Cooke / Hit Kit
--------------------------------------------------------------------------------

DR         Peak         RMS     Duration Track
--------------------------------------------------------------------------------
DR9       -1.01 dB   -11.55 dB      2:04 01-Only Sixteen (Mono)
DR8       -0.91 dB   -12.07 dB      2:25 02-All Of My Life (Mono)
DR7       -0.91 dB    -9.48 dB      2:43 03-Everybody Loves To Cha Cha Cha (Mono)
DR7       -0.41 dB   -10.80 dB      2:51 04-Blue Moon (Mono)
DR8       -0.91 dB   -10.11 dB      2:48 05-Win Your Love For Me (Mono)
DR10      -0.31 dB   -11.82 dB      2:33 06-Lonely Island (Mono)
DR7       -0.91 dB    -9.62 dB      2:46 07-You Send Me (Mono)
DR8       -0.68 dB   -10.33 dB      2:19 08-Love You Most Of All (Mono)
DR7       -0.91 dB   -10.01 dB      2:40 09-(I Love You) For Sentimental Reasons (Mono)
DR7       -0.31 dB   -10.83 dB      2:17 10-Little Things You Do (Mono)
DR9       -0.31 dB   -11.61 dB      2:33 11-Let's Go Steady Again (Mono)
DR8       -0.50 dB   -10.08 dB      2:56 12-You Were Made For Me (Mono)
DR8       -0.91 dB   -10.63 dB      2:33 13-Lonely Island (Single Version)
DR7       -0.71 dB    -9.26 dB      2:51 14-Win Your Love For Me (Bonus Track)
DR7       -0.58 dB    -9.78 dB      2:04 15-Almost In Your Arms (Love Song From “Houseboat”) (Bonus Track)
DR6       -0.87 dB    -9.13 dB      2:44 16-Everybody Loves To Cha Cha Cha (Bonus Track)
DR6       -0.91 dB    -9.80 dB      2:17 17-Little Things You Do (Bonus Track)
DR9       -0.71 dB   -12.21 dB      2:16 18-Only Sixteen (Bonus Track)
DR8       -0.74 dB   -10.83 dB      2:33 19-Let's Go Steady Again (Bonus Track)
DR6       -0.71 dB    -9.89 dB      2:39 20-With You (Bonus Track)
DR7       -0.81 dB    -9.95 dB      2:35 21-Ee-I-Ee-I-Oh a.k.a Ee-Yi-Ee-Yi-Oh (Bonus Track)
--------------------------------------------------------------------------------

Number of tracks:  21
Official DR value: DR8

Samplerate:        96000 Hz
Channels:          2
Bits per sample:   24
Bitrate:           2984 kbps
Codec:             FLAC
================================================================================
->
=========================================================================================================================================================
->
Tribute To The Lady (1959) {2020 Reissue}
->
foobar2000 1.5 / Dynamic Range Meter 1.1.1
log date: 2020-02-05 17:51:20

--------------------------------------------------------------------------------
Analyzed: Sam Cooke / Tribute To The Lady
--------------------------------------------------------------------------------

DR         Peak         RMS     Duration Track
--------------------------------------------------------------------------------
DR9       -1.01 dB   -12.72 dB      2:38 01-God Bless The Child (Mono)
DR9       -0.72 dB   -13.02 dB      1:53 02-She's Funny That Way (Mono)
DR9       -1.01 dB   -11.79 dB      2:35 03-I Gotta Right To Sing The Blues (Mono)
DR10      -0.96 dB   -14.33 dB      2:09 04-Good Morning Heartache (Mono)
DR9       -1.01 dB   -12.97 dB      2:27 05-T'aint Nobody's Bizness (If I Do) (Mono)
DR10      -1.01 dB   -13.27 dB      2:31 06-Comes Love (Mono)
DR11      -1.01 dB   -14.92 dB      2:30 07-Lover Girl (Man) (Mono)
DR9       -1.01 dB   -12.29 dB      2:24 08-Let's Call The Whole Thing Off (Mono)
DR9       -1.01 dB   -12.17 dB      2:13 09-Lover Come Back To Me (Mono)
DR10      -1.01 dB   -14.59 dB      2:25 10-Solitude (Mono)
DR9       -0.86 dB   -12.51 dB      2:32 11-They Can't Take That Away From Me (Mono)
DR11      -0.70 dB   -15.20 dB      2:38 12-Crazy She Calls Me (Mono)
DR10      -1.06 dB   -12.95 dB      2:39 13-God Bless The Child
DR9       -0.80 dB   -12.87 dB      1:54 14-She's Funny That Way
DR9       -0.85 dB   -12.13 dB      2:36 15-I Gotta Right To Sing The Blues
DR9       -1.09 dB   -12.74 dB      2:10 16-Good Morning Heartache
DR8       -0.90 dB   -10.92 dB      2:29 17-T'aint Nobody's Bizness (If I Do)
DR9       -1.11 dB   -12.22 dB      2:31 18-Comes Love
DR11      -0.20 dB   -13.80 dB      2:30 19-Lover Girl (Man)
DR9       -1.09 dB   -11.61 dB      2:24 20-Let's Call The Whole Thing Off
DR11      -0.51 dB   -13.29 dB      2:15 21-Lover Come Back To Me
DR11      -0.20 dB   -14.88 dB      2:25 22-Solitude
DR9       -0.94 dB   -12.03 dB      2:33 23-They Can't Take That Away From Me
DR10      -0.87 dB   -13.78 dB      2:36 24-Crazy She Calls Me
--------------------------------------------------------------------------------

Number of tracks:  24
Official DR value: DR10

Samplerate:        96000 Hz
Channels:          2
Bits per sample:   24
Bitrate:           2533 kbps
Codec:             FLAC
================================================================================
->
=========================================================================================================================================================
->
Hits Of The 50's (1960) {2016 Reissue}
->
foobar2000 1.5 / Dynamic Range Meter 1.1.1
log date: 2020-02-05 17:51:53

--------------------------------------------------------------------------------
Analyzed: Sam Cooke / Hits Of The 50's
--------------------------------------------------------------------------------

DR         Peak         RMS     Duration Track
--------------------------------------------------------------------------------
DR9       -0.46 dB   -11.53 dB      2:37 01-Hey There
DR9       -0.72 dB   -13.53 dB      2:39 02-Mona Lisa
DR9       -0.90 dB   -12.04 dB      2:15 03-Too Young
DR9       -0.34 dB   -12.33 dB      3:08 04-The Great Pretender
DR8        0.00 dB   -10.07 dB      2:55 05-You, You, You
DR9       -1.37 dB   -13.02 dB      3:31 06-Unchained Melody
DR8        0.00 dB   -11.39 dB      3:16 07-The Wayward Wind
DR8       -0.02 dB   -10.81 dB      2:51 08-Secret Love
DR9        0.00 dB   -11.27 dB      2:43 09-The Song from Moulin Rouge
DR8        0.00 dB   -10.95 dB      2:51 10-I'm Walking Behind You
DR9       -0.01 dB   -11.57 dB      2:20 11-Cry
DR9        0.00 dB   -11.57 dB      2:56 12-Venus
--------------------------------------------------------------------------------

Number of tracks:  12
Official DR value: DR9

Samplerate:        192000 Hz
Channels:          2
Bits per sample:   24
Bitrate:           5519 kbps
Codec:             FLAC
================================================================================
->
=========================================================================================================================================================
->
The Wonderful World Of Sam Cooke (1960) {2020 Reissue}
->
foobar2000 1.5 / Dynamic Range Meter 1.1.1
log date: 2020-02-05 17:52:14

--------------------------------------------------------------------------------
Analyzed: Sam Cooke / The Wonderful World Of Sam Cooke
--------------------------------------------------------------------------------

DR         Peak         RMS     Duration Track
--------------------------------------------------------------------------------
DR7       -1.01 dB    -9.72 dB      2:09 01-(What A) Wonderful World (Mono)
DR8       -0.30 dB   -10.99 dB      2:33 02-Desire Me (Mono)
DR10      -1.01 dB   -12.96 dB      2:24 03-Summertime (Part 1) (Mono)
DR8       -0.71 dB   -10.82 dB      2:07 04-Almost In Your Arms (Love Song From “Houseboat”) (Mono)
DR11      -0.71 dB   -14.21 dB      2:55 05-That's Heaven To Me (Mono)
DR8       -1.31 dB   -10.47 dB      2:26 06-No One (Can Ever Take Your Place) (Mono)
DR6       -0.71 dB    -8.60 dB      2:39 07-With You (Mono)
DR7       -0.41 dB   -10.80 dB      2:51 08-Blue Moon (Mono)
DR9       -0.51 dB   -10.19 dB      2:13 09-Stealing Kisses (Mono)
DR8       -0.50 dB   -10.08 dB      2:56 10-You Were Made For Me (Mono)
DR7       -0.28 dB   -10.71 dB      2:02 11-There I've Said It Again (Mono)
DR9       -0.61 dB   -12.82 dB      3:00 12-I Thank God (Mono)
DR9       -0.81 dB   -11.60 dB      2:17 13-Steal Away (Bonus Track, Album Version)
DR7       -0.62 dB   -11.48 dB      2:52 14-Deep River (Bonus Track)
DR9       -0.53 dB   -11.54 dB      2:50 15-One Hour Ahead Of The Posse (Bonus Track)
DR7       -0.71 dB   -10.13 dB      2:37 16-Ee-I-Ee-I-Oh a.k.a. Ee-Yi-Ee-Yi-Oh (Bonus Track)
DR8       -1.08 dB   -10.54 dB      2:23 17-So Glamorous (Bonus Track)
DR9       -0.71 dB   -12.42 dB      2:30 18-Steal Away (Bonus Track, Single Version)
--------------------------------------------------------------------------------

Number of tracks:  18
Official DR value: DR8

Samplerate:        96000 Hz
Channels:          2
Bits per sample:   24
Bitrate:           2172 kbps
Codec:             FLAC
================================================================================
->
=========================================================================================================================================================
->
My Kind Of Blues (1961) {2016 Reissue}
->
foobar2000 1.5 / Dynamic Range Meter 1.1.1
log date: 2020-02-05 17:52:44

--------------------------------------------------------------------------------
Analyzed: Sam Cooke / My Kind Of Blues
--------------------------------------------------------------------------------

DR         Peak         RMS     Duration Track
--------------------------------------------------------------------------------
DR8       -0.24 dB   -10.56 dB      3:15 01-Don't Get Around Much Any More
DR8       -0.25 dB   -12.31 dB      3:01 02-Little Girl Blue
DR7        0.00 dB   -10.69 dB      3:26 03-Nobody Knows You When You're Down And Out
DR7        0.00 dB   -10.46 dB      2:26 04-Out In The Cold Again
DR8        0.00 dB   -10.72 dB      2:35 05-But Not For Me
DR8        0.00 dB    -9.57 dB      2:11 06-Exactly Like You
DR8       -0.46 dB   -10.40 dB      3:17 07-I'm Just A Lucky So And So
DR7        0.00 dB    -9.26 dB      3:05 08-Since I Met You Baby
DR7       -0.80 dB   -11.50 dB      2:15 09-Baby Won't You Please Come Home
DR8       -0.03 dB   -10.11 dB      3:02 10-Trouble In Mind
DR8       -0.21 dB   -10.89 dB      2:18 11-You're Always On My Mind
DR7       -0.36 dB    -9.69 dB      2:10 12-The Song Is Ended (But The Melody Lingers On)
--------------------------------------------------------------------------------

Number of tracks:  12
Official DR value: DR8

Samplerate:        192000 Hz
Channels:          2
Bits per sample:   24
Bitrate:           5540 kbps
Codec:             FLAC
================================================================================
->
=========================================================================================================================================================
->
Swing Low (1961) {2014 Reissue}
->
foobar2000 1.5 / Dynamic Range Meter 1.1.1
log date: 2020-02-05 17:53:15

--------------------------------------------------------------------------------
Analyzed: Sam Cooke / Swing Low
--------------------------------------------------------------------------------

DR         Peak         RMS     Duration Track
--------------------------------------------------------------------------------
DR10       0.00 dB   -14.10 dB      3:09 01-Swing Low, Sweet Chariot
DR10      -1.55 dB   -15.32 dB      4:10 02-I'm Just A Country Boy
DR9        0.00 dB   -12.95 dB      2:59 03-They Call The Wind Maria
DR10      -2.14 dB   -16.53 dB      3:13 04-Twilight On The Trail
DR9        0.00 dB   -12.00 dB      2:20 05-If I Had You (I'd Be Happy)
DR9       -0.79 dB   -13.93 dB      2:36 06-Chain Gang
DR9        0.00 dB   -12.26 dB      3:14 07-Grandfather's Clock
DR10      -3.04 dB   -16.36 dB      3:48 08-Jeanie With The Light Brown Hair
DR9       -0.68 dB   -12.15 dB      3:01 09-Long, Long Ago
DR10      -0.41 dB   -12.84 dB      2:13 10-Pray
DR9       -1.90 dB   -13.15 dB      2:47 11-You Belong To Me
DR10      -1.25 dB   -15.06 dB      3:08 12-Goin' Home
--------------------------------------------------------------------------------

Number of tracks:  12
Official DR value: DR10

Samplerate:        192000 Hz
Channels:          2
Bits per sample:   24
Bitrate:           5293 kbps
Codec:             FLAC
================================================================================
->
=========================================================================================================================================================
->
Twistin' The Night Away (1962) {2016 Reissue}
->
foobar2000 1.5 / Dynamic Range Meter 1.1.1
log date: 2020-02-05 17:53:42

--------------------------------------------------------------------------------
Analyzed: Sam Cooke / Twistin' The Night Away
--------------------------------------------------------------------------------

DR         Peak         RMS     Duration Track
--------------------------------------------------------------------------------
DR10      -0.10 dB   -11.66 dB      2:42 01-Twistin' The Night Away
DR10      -0.16 dB   -12.24 dB      2:20 02-Sugar Dumpling
DR9        0.00 dB   -10.97 dB      2:11 03-Twistin' In The Kitchen With Dinah
DR10      -0.83 dB   -12.85 dB      2:34 04-Somebody's Gonna Miss Me
DR10       0.00 dB   -12.07 dB      2:23 05-A Whole Lotta Woman
DR9        0.00 dB   -11.05 dB      2:30 06-The Twist
DR9       -0.47 dB   -11.57 dB      2:10 07-Twistin' In The Old Town Tonight
DR9        0.00 dB   -11.24 dB      2:38 08-Movin' And A'Groovin'
DR9        0.00 dB   -11.18 dB      2:16 09-Camptown Twist
DR9       -0.09 dB   -11.54 dB      2:58 10-Somebody Have Mercy
DR9       -0.17 dB   -10.58 dB      2:10 11-Soothe Me
DR9       -0.07 dB   -10.81 dB      2:31 12-That's It - I Quit - I'm Movin' On
--------------------------------------------------------------------------------

Number of tracks:  12
Official DR value: DR9

Samplerate:        192000 Hz
Channels:          2
Bits per sample:   24
Bitrate:           5426 kbps
Codec:             FLAC
================================================================================
->
=========================================================================================================================================================
->
Mr. Soul (1963) {2016 Reissue}
->
foobar2000 1.5 / Dynamic Range Meter 1.1.1
log date: 2020-02-05 17:54:13

--------------------------------------------------------------------------------
Analyzed: Sam Cooke / Mr. Soul
--------------------------------------------------------------------------------

DR         Peak         RMS     Duration Track
--------------------------------------------------------------------------------
DR9       -1.85 dB   -12.18 dB      2:27 01-I Wish You Love
DR9       -0.42 dB   -11.94 dB      2:29 02-Willow Weep For Me
DR10       0.00 dB   -12.73 dB      2:52 03-Chains Of Love
DR10       0.00 dB   -13.28 dB      3:27 04-Smoke Rings
DR10      -0.64 dB   -13.37 dB      3:32 05-All The Way
DR9       -0.19 dB   -12.49 dB      2:41 06-Send Me Some Lovin'
DR8       -0.78 dB   -12.13 dB      2:49 07-Cry Me A River
DR8       -0.67 dB   -12.64 dB      3:19 08-Driftin' Blues
DR9       -0.93 dB   -11.89 dB      3:18 09-For Sentimental Reasons
DR9       -0.78 dB   -12.78 dB      2:40 10-Nothing Can Change This Love
DR9        0.00 dB   -12.00 dB      2:37 11-Little Girl
DR9       -1.63 dB   -12.75 dB      4:01 12-These Foolish Things
--------------------------------------------------------------------------------

Number of tracks:  12
Official DR value: DR9

Samplerate:        192000 Hz
Channels:          2
Bits per sample:   24
Bitrate:           5384 kbps
Codec:             FLAC
================================================================================
->
=========================================================================================================================================================
->
Sam Cooke At the Copa (1964) {2003 Reissue}
->
foobar2000 1.5 / Dynamic Range Meter 1.1.1
log date: 2020-02-05 17:54:33

--------------------------------------------------------------------------------
Analyzed: Sam Cooke / Sam Cooke At the Copa
--------------------------------------------------------------------------------

DR         Peak         RMS     Duration Track
--------------------------------------------------------------------------------
DR13      -0.77 dB   -19.68 dB      0:36 01-Opening Introduction
DR12      -0.40 dB   -14.70 dB      1:32 02-The Best Things In Life Are Free
DR12      -0.99 dB   -16.10 dB      2:51 03-Bill Bailey
DR13      -0.40 dB   -15.70 dB      3:19 04-Nobody Knows You When You're Down And Out
DR12      -1.41 dB   -16.61 dB      3:00 05-Frankie And Johnny
DR14      -0.40 dB   -18.38 dB      4:56 06-You Send Me
DR13      -1.22 dB   -16.69 dB      6:25 07-If I Had A Hammer (The Hammer Song)
DR12      -3.14 dB   -19.36 dB      3:05 08-When I Fall In Love
DR12      -0.40 dB   -13.97 dB      5:04 09-Twistin' The Night Away
DR15      -5.06 dB   -23.60 dB      1:28 10-Band Introductions
DR13      -2.24 dB   -17.42 dB      3:36 11-This Little Light Of Mine
DR13      -1.44 dB   -16.53 dB      3:01 12-Blowin' In The Wind
DR13      -1.69 dB   -17.12 dB      3:37 13-Tennessee Waltz
--------------------------------------------------------------------------------

Number of tracks:  13
Official DR value: DR13

Samplerate:        88200 Hz
Channels:          2
Bits per sample:   24
Bitrate:           2717 kbps
Codec:             FLAC
================================================================================
->
=========================================================================================================================================================
->
One Night Stand! At The Harlem Square Club (1985) {2016 Reissue}
->
foobar2000 1.5 / Dynamic Range Meter 1.1.1
log date: 2020-02-05 17:54:58

--------------------------------------------------------------------------------
Analyzed: Sam Cooke / One Night Stand: Sam Cooke Live At The Harlem Square Club, 1963
--------------------------------------------------------------------------------

DR         Peak         RMS     Duration Track
--------------------------------------------------------------------------------
DR10      -1.31 dB   -14.65 dB      1:23 01-Soul Twist / Introduction
DR7       -1.31 dB    -9.32 dB      2:55 02-Feel It (Don't Fight It)
DR6       -1.31 dB    -8.30 dB      3:11 03-Chain Gang
DR6       -1.31 dB    -8.83 dB      2:45 04-Cupid
DR6       -1.31 dB    -8.73 dB      5:12 05-Medley: It's All Right / For Sentimental Reasons
DR6       -1.29 dB    -8.35 dB      5:18 06-Twistin' The Night Away
DR5       -1.31 dB    -8.27 dB      6:18 07-Somebody Have Mercy
DR6       -1.31 dB    -8.48 dB      4:07 08-Bring It On Home To Me
DR5       -1.31 dB    -7.53 dB      2:41 09-Nothing Can Change This Love
DR6       -1.31 dB    -8.17 dB      5:06 10-Having A Party
--------------------------------------------------------------------------------

Number of tracks:  10
Official DR value: DR6

Samplerate:        96000 Hz
Channels:          2
Bits per sample:   24
Bitrate:           3412 kbps
Codec:             FLAC
================================================================================
->
=========================================================================================================================================================
->
Portrait Of A Legend 1951-1964 (2003)
->
foobar2000 1.5 / Dynamic Range Meter 1.1.1
log date: 2020-02-05 17:55:00

--------------------------------------------------------------------------------
Analyzed: Sam Cooke / Portrait of a Legend
--------------------------------------------------------------------------------

DR         Peak         RMS     Duration Track
--------------------------------------------------------------------------------
DR8       -3.60 dB   -13.73 dB      2:05 01-Touch The Hem Of His Garment
DR13       0.00 dB   -16.19 dB      2:05 04-Only Sixteen
DR10      -0.18 dB   -13.92 dB      2:40 14-Chain Gang
--------------------------------------------------------------------------------

Number of tracks:  3
Official DR value: DR10

Samplerate:        44100 Hz
Channels:          2
Bits per sample:   24
Bitrate:           1523 kbps
Codec:             FLAC
================================================================================

--------------------------------------------------------------------------------
Analyzed: Sam Cooke / Portrait of a Legend
--------------------------------------------------------------------------------

DR         Peak         RMS     Duration Track
--------------------------------------------------------------------------------
DR9       -2.24 dB   -14.30 dB      2:26 02-Lovable
DR9       -3.13 dB   -13.73 dB      2:45 03-You Send Me
DR10      -3.95 dB   -15.42 dB      2:40 05-(I Love You) For Sentimental Reasons
DR10      -2.35 dB   -13.87 dB      2:22 06-Just For You
DR12      -0.20 dB   -13.58 dB      2:48 07-Win Your Love For Me
DR7       -2.40 dB   -12.98 dB      2:43 08-Everybody Loves To Cha Cha Cha
DR11      -1.05 dB   -13.87 dB      2:15 09-I'll Come Running Back To You
DR10      -3.92 dB   -15.50 dB      2:56 10-You Were Made For Me
DR11      -0.20 dB   -14.22 dB      2:41 11-Sad Mood
DR12      -0.20 dB   -13.23 dB      2:39 12-Cupid
DR13      -0.20 dB   -14.59 dB      2:09 13-(What A) Wonderful World
DR11      -2.59 dB   -15.95 dB      2:23 15-Summertime
DR12      -0.20 dB   -14.55 dB      2:54 16-Little Red Rooster
DR11      -0.20 dB   -12.85 dB      2:45 17-Bring It On Home To Me
DR11      -0.20 dB   -13.32 dB      2:40 18-Nothing Can Change This Love
DR12      -0.24 dB   -14.54 dB      2:45 19-Sugar Dumpling
DR12      -1.63 dB   -15.48 dB      2:31 20-(Ain't That) Good News
DR12      -0.20 dB   -14.19 dB      2:43 21-Meet Me At Mary's Place
DR11      -0.20 dB   -12.48 dB      2:44 22-Twistin' The Night Away
DR12      -0.20 dB   -13.67 dB      2:53 23-Shake
DR12      -0.61 dB   -14.58 dB      3:12 24-Tennessee Waltz
DR13      -0.20 dB   -13.92 dB      2:42 25-Another Saturday Night
DR11      -0.87 dB   -13.32 dB      2:28 26-Good Times
DR13      -0.20 dB   -14.27 dB      2:38 27-Having A Party
DR11      -0.20 dB   -13.00 dB      2:37 28-That's Where It's At
DR10      -0.26 dB   -13.73 dB      3:14 29-A Change Is Gonna Come
DR11      -4.08 dB   -17.22 dB      2:32 30-Jesus Gave Me Water
DR9       -8.06 dB   -20.95 dB      0:31 31-Soul (Hidden Track)
--------------------------------------------------------------------------------

Number of tracks:  28
Official DR value: DR11

Samplerate:        88200 Hz
Channels:          2
Bits per sample:   24
Bitrate:           1987 kbps
Codec:             FLAC
================================================================================




Create a new paste based on this one


Comments: