[ create a new paste ] login | about

Link: http://codepad.org/P8oHQdjq    [ raw code | fork ]

Plain Text, pasted on Mar 16:
[CUETools log; Date: 3/16/2016 2:37:51 PM; Version: 2.1.5]
[CTDB TOCID: hiYGyvyz4hr4s6n4U5xDby0wKcg-] found.
Track | CTDB Status
  1   | (27/27) Accurately ripped
  2   | (27/27) Accurately ripped
  3   | (27/27) Accurately ripped
  4   | (27/27) Accurately ripped
  5   | (27/27) Accurately ripped
  6   | (27/27) Accurately ripped
  7   | (27/27) Accurately ripped
  8   | (27/27) Accurately ripped
  9   | (27/27) Accurately ripped
 10   | (27/27) Accurately ripped
 11   | (27/27) Accurately ripped
 12   | (27/27) Accurately ripped
 13   | (27/27) Accurately ripped
[AccurateRip ID: 0012d4f5-00bb8520-c408c70d] found.
Track   [  CRC   |   V2   ] Status
 01     [400256aa|f0e33289] (02+44/46) Accurately ripped
 02     [90f039d2|3af5299b] (02+44/46) Accurately ripped
 03     [85f8126f|84b2d375] (02+43/45) Accurately ripped
 04     [5317cabc|5b6bad80] (02+44/46) Accurately ripped
 05     [8bce65ae|bb38b6e9] (02+44/46) Accurately ripped
 06     [54cf3603|33d6ad3c] (02+43/45) Accurately ripped
 07     [305f3a22|441d945d] (02+41/43) Accurately ripped
 08     [21533405|7e95d96d] (02+44/46) Accurately ripped
 09     [ece3b887|2f1c91c2] (02+44/46) Accurately ripped
 10     [1c5077d1|f3a9df08] (02+43/45) Accurately ripped
 11     [85f49e89|bca96638] (02+44/46) Accurately ripped
 12     [47107a1c|2fb14d0c] (02+43/45) Accurately ripped
 13     [29109703|cefa27c5] (02+44/46) Accurately ripped

Track Peak [ CRC32  ] [W/O NULL] [  LOG   ]
 --   97.8 [E50695B5] [963BA5D9]   CRC32   
 01   97.7 [999BE970] [0A96D706]           
 02   96.1 [24E9A2C9] [6A0C3415]           
 03   87.7 [A8CD332F] [A42D3626]           
 04   92.6 [9B5009AC] [7BCF06CE]           
 05   96.8 [DD2104D2] [9284F869]           
 06   90.6 [45821011] [EF21553D]           
 07   88.2 [99283E1A] [8FBF8DD7]           
 08   85.4 [25E4265C] [9A79C1DA]           
 09   89.4 [A10BB4BC] [0F8075C8]           
 10   83.5 [6B6245C4] [2CAAAB57]           
 11   83.2 [4402B639] [AD152BED]           
 12   97.8 [122B6E75] [A80C6B4C]           
 13   48.4 [44857940] [6787B7A6]           



Create a new paste based on this one


Comments: