[ create a new paste ] login | about

Link: http://codepad.org/PDyta3bV    [ raw code | fork ]

Plain Text, pasted on Jul 9:
Exact Audio Copy V1.0 beta 3 from 29. August 2011

EAC extraction logfile from 2. April 2016, 17:38

Ben Liebrand / Grand 12-Inches14 (CD4)

Used drive  : MATSHITADVD-RAM UJ8FBS   Adapter: 0  ID: 0

Read mode               : Secure
Utilize accurate stream : Yes
Defeat audio cache      : Yes
Make use of C2 pointers : No

Read offset correction                      : 6
Overread into Lead-In and Lead-Out          : No
Fill up missing offset samples with silence : Yes
Delete leading and trailing silent blocks   : No
Null samples used in CRC calculations       : Yes
Used interface                              : Native Win32 interface for Win NT & 2000
Gap handling                                : Appended to previous track

Used output format              : User Defined Encoder
Selected bitrate                : 896 kBit/s
Quality                         : High
Add ID3 tag                     : No
Command line compressor         : C:\Program Files (x86)\FLAC\flac.exe
Additional command line options : -8 -V -T "ARTIST=%artist%" -T "TITLE=%title%" -T "ALBUM=%albumtitle%" -T "DATE=%year%" -T "TRACKNUMBER=%tracknr%" -T "GENRE=%genre%" -T "PERFORMER=%albuminterpret%" -T "COMPOSER=%composer%" %haslyrics%--tag-from-file=LYRICS="%lyricsfile%"%haslyrics% -T "ALBUMARTIST=%albumartist%" -T "DISCNUMBER=%cdnumber%" -T "TOTALDISCS=%totalcds%" -T "TOTALTRACKS=%numtracks%" -T "COMMENT=%comment%" %source% -o %dest%


TOC of the extracted CD

     Track |   Start  |  Length  | Start sector | End sector 
    ---------------------------------------------------------
        1  |  0:00.00 |  6:25.63 |         0    |    28937   
        2  |  6:25.63 |  6:28.41 |     28938    |    58078   
        3  | 12:54.29 |  9:14.42 |     58079    |    99670   
        4  | 22:08.71 |  8:33.10 |     99671    |   138155   
        5  | 30:42.06 |  6:20.65 |    138156    |   166720   
        6  | 37:02.71 |  8:45.73 |    166721    |   206168   
        7  | 45:48.69 |  8:05.28 |    206169    |   242571   
        8  | 53:54.22 |  6:58.29 |    242572    |   273950   
        9  | 60:52.51 |  5:46.47 |    273951    |   299947   
       10  | 66:39.23 |  6:18.55 |    299948    |   328352   


Track  1

     Filename C:\Users\alessandro\Desktop\what.cd\Grand 12-Inches 14\01 Chic My Forbidden Lover (12'' Version).wav

     Pre-gap length  0:00:02.00

     Peak level 98.8 %
     Extraction speed 3.3 X
     Track quality 100.0 %
     Test CRC 82E5CD9A
     Copy CRC 82E5CD9A
     Track not present in AccurateRip database
     Copy OK

Track  2

     Filename C:\Users\alessandro\Desktop\what.cd\Grand 12-Inches 14\02 Jesse Green Nice And Slow (Extended Version).wav

     Pre-gap length  0:00:02.00

     Peak level 98.8 %
     Extraction speed 3.7 X
     Track quality 100.0 %
     Test CRC 98EA72E9
     Copy CRC 98EA72E9
     Track not present in AccurateRip database
     Copy OK

Track  3

     Filename C:\Users\alessandro\Desktop\what.cd\Grand 12-Inches 14\03 S.O.S. Band Just Be Good To Me (Album Version).wav

     Pre-gap length  0:00:02.00

     Peak level 98.8 %
     Extraction speed 4.4 X
     Track quality 100.0 %
     Test CRC AF30ABC5
     Copy CRC AF30ABC5
     Track not present in AccurateRip database
     Copy OK

Track  4

     Filename C:\Users\alessandro\Desktop\what.cd\Grand 12-Inches 14\04 Donna Summer Walk Away (12'' Version).wav

     Pre-gap length  0:00:02.00

     Peak level 99.0 %
     Extraction speed 4.8 X
     Track quality 100.0 %
     Test CRC 3CF84AD4
     Copy CRC 3CF84AD4
     Track not present in AccurateRip database
     Copy OK

Track  5

     Filename C:\Users\alessandro\Desktop\what.cd\Grand 12-Inches 14\05 Nu Shooz I Can't Wait (Long Dutch Remix).wav

     Pre-gap length  0:00:02.00

     Peak level 98.8 %
     Extraction speed 5.1 X
     Track quality 100.0 %
     Test CRC 3930C0A1
     Copy CRC 3930C0A1
     Track not present in AccurateRip database
     Copy OK

Track  6

     Filename C:\Users\alessandro\Desktop\what.cd\Grand 12-Inches 14\06 Cherrelle With Alexander O'Neal Saturday Love (Extended Version).wav

     Pre-gap length  0:00:02.00

     Peak level 93.3 %
     Extraction speed 5.6 X
     Track quality 100.0 %
     Test CRC 25855B70
     Copy CRC 25855B70
     Track not present in AccurateRip database
     Copy OK

Track  7

     Filename C:\Users\alessandro\Desktop\what.cd\Grand 12-Inches 14\07 Stephanie Mills What Cha Gonna Do With My Lovin' (12'' Version).wav

     Pre-gap length  0:00:02.00

     Peak level 98.8 %
     Extraction speed 5.3 X
     Track quality 99.9 %
     Test CRC 211D8DCE
     Copy CRC 211D8DCE
     Track not present in AccurateRip database
     Copy OK

Track  8

     Filename C:\Users\alessandro\Desktop\what.cd\Grand 12-Inches 14\08 Serge Ponsar Out In The Night (Maxi Single).wav

     Pre-gap length  0:00:02.00

     Peak level 98.8 %
     Extraction speed 6.2 X
     Track quality 100.0 %
     Test CRC 73523FEB
     Copy CRC 73523FEB
     Track not present in AccurateRip database
     Copy OK

Track  9

     Filename C:\Users\alessandro\Desktop\what.cd\Grand 12-Inches 14\09 MFSB Ft. The Three Degrees T.S.O.P. (The Sound Of Philadelphia) (Special 12'' Version).wav

     Pre-gap length  0:00:02.00

     Peak level 98.8 %
     Extraction speed 6.3 X
     Track quality 100.0 %
     Test CRC 63CA816E
     Copy CRC 63CA816E
     Track not present in AccurateRip database
     Copy OK

Track 10

     Filename C:\Users\alessandro\Desktop\what.cd\Grand 12-Inches 14\10 Odyssey Native New Yorker (Brooklyn Club Mix).wav

     Pre-gap length  0:00:02.00

     Peak level 98.8 %
     Extraction speed 6.6 X
     Track quality 100.0 %
     Test CRC B8C164FC
     Copy CRC B8C164FC
     Track not present in AccurateRip database
     Copy OK


None of the tracks are present in the AccurateRip database

No errors occurred

End of status report

---- CUETools DB Plugin V2.1.3

[CTDB TOCID: i2HCQvMvxXXyBmdbCCRkvtrkdxU-] found, Submit result: already submitted
[cd5d465b] (11/11) Accurately ripped


==== Log checksum D2819579F7CF6AB170440FAC3A66356E7A15A6A02228D9B60FB68529BF532C56 ====



Create a new paste based on this one


Comments: