[ create a new paste ] login | about

Link: http://codepad.org/PGbwSD8E    [ raw code | fork ]

Plain Text, pasted on Dec 9:
foobar2000 1.6 / Dynamic Range Meter 1.1.1
log date: 2020-12-09 05:52:25

--------------------------------------------------------------------------------
Analyzed: Henry Mancini / Six Hours Past Sunset & A Warm Shade Of Ivory
--------------------------------------------------------------------------------

DR         Peak         RMS     Duration Track
--------------------------------------------------------------------------------
DR10      -5.42 dB   -18.53 dB      2:24 01-Softly, as I Leave You  
DR9       -5.72 dB   -18.09 dB      2:11 02-Midnight Cowboy  
DR11      -4.49 dB   -19.31 dB      3:36 03-Traces 
DR10      -4.02 dB   -17.26 dB      2:41 04-Natalie  
DR11      -4.85 dB   -19.55 dB      2:31 05-Didnt We  
DR10      -7.51 dB   -20.67 dB      3:04 06-Two for the Road  
DR11      -4.67 dB   -19.85 dB      2:31 07-Six Hours Past Sunset  
DR10      -4.64 dB   -18.60 dB      2:44 08-Theme from The Fox  
DR10      -5.64 dB   -18.69 dB      2:34 09-Quentins Theme  
DR10      -5.00 dB   -19.03 dB      3:09 10-Girl Talk   
DR11      -4.07 dB   -18.04 dB      2:59 11-Moonlight Sonata  
DR10      -7.10 dB   -21.32 dB      2:50 12-In the Wee Small Hours of the Morning  
DR10      -5.95 dB   -19.29 dB      3:10 13-Cycles  
DR11      -5.79 dB   -21.29 dB      2:57 14-Moment to Moment   
DR11      -5.34 dB   -20.82 dB      3:37 15-A Day in the Life of a Fool   
DR10      -5.53 dB   -19.49 dB      3:25 16-Watch What Happens   
DR11      -4.81 dB   -19.28 dB      3:22 17-By the Time I Get to Phoenix   
DR10      -4.02 dB   -18.61 dB      2:38 18-Love Theme from Romeo & Juliet   
DR11      -5.14 dB   -19.63 dB      3:02 19-The Windmills of Your Mind   
DR11      -4.00 dB   -20.46 dB      2:41 20-When I Look in Your Eyes   
DR10      -4.03 dB   -18.95 dB      3:11 21-Meditation  
DR10      -6.62 dB   -21.81 dB      3:21 22-Dream a Little Dream of Me  
--------------------------------------------------------------------------------

Number of tracks:  22
Official DR value: DR10

Samplerate:        88200 Hz
Channels:          2
Bits per sample:   24
Bitrate:           2308 kbps
Codec:             FLAC
================================================================================




Create a new paste based on this one


Comments: