[ create a new paste ] login | about

Link: http://codepad.org/PHYsBXzQ    [ raw code | fork ]

Plain Text, pasted on Oct 28:
foobar2000 1.6 / Dynamic Range Meter 1.1.1
log date: 2020-10-28 04:54:12

--------------------------------------------------------------------------------
Analyzed: Diana Krall / This Dream Of You
--------------------------------------------------------------------------------

DR         Peak         RMS     Duration Track
--------------------------------------------------------------------------------
DR9       -0.22 dB   -11.86 dB      4:50 01-But Beautiful
DR9       -0.22 dB   -11.43 dB      4:05 02-That's All / Azure-Te
DR11      -0.22 dB   -14.21 dB      5:19 03-Autumn In New York
DR9       -0.22 dB   -11.01 dB      3:40 04-Almost Like Being In Love
DR13      -0.22 dB   -15.49 dB      3:57 05-More Than You Know
DR9       -0.22 dB   -10.61 dB      2:25 06-Just You, Just Me
DR11      -0.22 dB   -13.36 dB      4:48 07-There's No You
DR13      -0.22 dB   -16.45 dB      3:18 08-Don’t Smoke In Bed
DR10      -0.22 dB   -13.33 dB      7:02 09-This Dream Of You
DR10      -0.22 dB   -11.58 dB      2:38 10-I Wished On The Moon
DR12      -0.22 dB   -14.66 dB      5:18 11-How Deep Is The Ocean
DR12      -0.22 dB   -14.29 dB      3:28 12-Singing In The Rain
--------------------------------------------------------------------------------

Number of tracks:  12
Official DR value: DR11

Samplerate:        44100 Hz
Channels:          2
Bits per sample:   16
Bitrate:           713 kbps
Codec:             FLAC
================================================================================


foobar2000 1.6 / Dynamic Range Meter 1.1.1
log date: 2020-10-28 04:49:45

--------------------------------------------------------------------------------
Analyzed: Diana Krall / This Dream Of You
--------------------------------------------------------------------------------

DR         Peak         RMS     Duration Track
--------------------------------------------------------------------------------
DR9       -0.22 dB   -11.86 dB      4:50 01-But Beautiful
DR9       -0.22 dB   -11.43 dB      4:05 02-That's All / Azure-Te
DR11      -0.22 dB   -14.21 dB      5:19 03-Autumn In New York
DR9       -0.22 dB   -11.01 dB      3:40 04-Almost Like Being In Love
DR13      -0.22 dB   -15.49 dB      3:57 05-More Than You Know
DR9       -0.22 dB   -10.61 dB      2:25 06-Just You, Just Me
DR11      -0.22 dB   -13.36 dB      4:48 07-There's No You
DR13      -0.22 dB   -16.45 dB      3:18 08-Don’t Smoke In Bed
DR10      -0.22 dB   -13.33 dB      7:02 09-This Dream Of You
DR10      -0.22 dB   -11.58 dB      2:38 10-I Wished On The Moon
DR12      -0.22 dB   -14.66 dB      5:18 11-How Deep Is The Ocean
DR12      -0.22 dB   -14.29 dB      3:28 12-Singing In The Rain
--------------------------------------------------------------------------------

Number of tracks:  12
Official DR value: DR11

Samplerate:        44100 Hz
Channels:          2
Bits per sample:   24
Bitrate:           1410 kbps
Codec:             FLAC
================================================================================




Create a new paste based on this one


Comments: