[ create a new paste ] login | about

Link: http://codepad.org/PMdrVAgc    [ raw code | fork ]

Plain Text, pasted on Jul 20:
Exact Audio Copy V1.3 from 2. September 2016

EAC extraction logfile from 15. July 2018, 6:50

Guns N' Roses / Appetite For Destruction CD3

Used drive  : PLEXTOR BD-R  PX-B950SA   Adapter: 1  ID: 1

Read mode               : Secure
Utilize accurate stream : Yes
Defeat audio cache      : Yes
Make use of C2 pointers : No

Read offset correction                      : 6
Overread into Lead-In and Lead-Out          : No
Fill up missing offset samples with silence : Yes
Delete leading and trailing silent blocks   : No
Null samples used in CRC calculations       : Yes
Used interface                              : Native Win32 interface for Win NT & 2000

Used output format : Internal WAV Routines
Sample format      : 44.100 Hz; 16 Bit; Stereo


TOC of the extracted CD

     Track |   Start  |  Length  | Start sector | End sector 
    ---------------------------------------------------------
        1  |  0:00.00 |  4:59.56 |         0    |    22480   
        2  |  4:59.56 |  4:49.55 |     22481    |    44210   
        3  |  9:49.36 |  4:01.24 |     44211    |    62309   
        4  | 13:50.60 |  5:34.27 |     62310    |    87386   
        5  | 19:25.12 |  4:21.00 |     87387    |   106961   
        6  | 23:46.12 |  3:50.20 |    106962    |   124231   
        7  | 27:36.32 |  3:21.63 |    124232    |   139369   
        8  | 30:58.20 |  4:35.14 |    139370    |   160008   
        9  | 35:33.34 |  6:06.20 |    160009    |   187478   
       10  | 41:39.54 |  2:38.42 |    187479    |   199370   
       11  | 44:18.21 |  4:36.28 |    199371    |   220098   
       12  | 48:54.49 |  3:21.04 |    220099    |   235177   


Range status and errors

Selected range

     Filename C:\Guns N' Roses\1987 Appetite For Destruction (5-Disc Box Set Universal Music 2018)\CD3\Guns N' Roses - Appetite For Destruction CD3.wav

     Peak level 100.0 %
     Extraction speed 7.0 X
     Range quality 99.9 %
     Test CRC 30243E50
     Copy CRC 30243E50
     Copy OK

No errors occurred

 
AccurateRip summary
 
Track  1  accurately ripped (confidence 1)  [9F5738CC]  (AR v2)
Track  2  accurately ripped (confidence 1)  [0DCA4CFF]  (AR v2)
Track  3  accurately ripped (confidence 1)  [D4F29AE4]  (AR v2)
Track  4  accurately ripped (confidence 1)  [518C8850]  (AR v2)
Track  5  accurately ripped (confidence 1)  [D1D29178]  (AR v2)
Track  6  accurately ripped (confidence 1)  [9C5ECE40]  (AR v2)
Track  7  accurately ripped (confidence 1)  [4FB70EE0]  (AR v2)
Track  8  accurately ripped (confidence 1)  [FC0F18E4]  (AR v2)
Track  9  accurately ripped (confidence 1)  [6730F0CA]  (AR v2)
Track 10  accurately ripped (confidence 1)  [52615783]  (AR v2)
Track 11  accurately ripped (confidence 1)  [736BD657]  (AR v2)
Track 12  accurately ripped (confidence 1)  [B13D9245]  (AR v2)
 
All tracks accurately ripped

End of status report

---- CUETools DB Plugin V2.1.6

[CTDB TOCID: dpqiAMOMfHqhx2eJOxDGyU63HbM-] found
Submit result: dpqiAMOMfHqhx2eJOxDGyU63HbM- has been confirmed
Track | CTDB Status
  1   | (40/40) Accurately ripped
  2   | (40/40) Accurately ripped
  3   | (40/40) Accurately ripped
  4   | (40/40) Accurately ripped
  5   | (40/40) Accurately ripped
  6   | (40/40) Accurately ripped
  7   | (40/40) Accurately ripped
  8   | (40/40) Accurately ripped
  9   | (40/40) Accurately ripped
 10   | (40/40) Accurately ripped
 11   | (40/40) Accurately ripped
 12   | (40/40) Accurately ripped


==== Log checksum F8D2BAF485C389BEE91FD1D8117EDB6BB6EF30FBD7631932AC5F1E72B4A8B6E1 ====



Create a new paste based on this one


Comments: