[ create a new paste ] login | about

Link: http://codepad.org/PN78uDLi    [ raw code | fork ]

Plain Text, pasted on Dec 21:
[CUETools log; Date: 12/21/2016 11:41:43 AM; Version: 2.1.5]
[CTDB TOCID: PIFAJLjnjj68UHho81c1juTyZhU-] found.
Track | CTDB Status
  1   | (7/7) Accurately ripped
  2   | (7/7) Accurately ripped
  3   | (7/7) Accurately ripped
  4   | (7/7) Accurately ripped
  5   | (7/7) Accurately ripped
  6   | (7/7) Accurately ripped
  7   | (7/7) Accurately ripped
  8   | (7/7) Accurately ripped
  9   | (7/7) Accurately ripped
 10   | (7/7) Accurately ripped
 11   | (7/7) Accurately ripped
 12   | (7/7) Accurately ripped
 13   | (7/7) Accurately ripped
[AccurateRip ID: 001d18e7-01272c9e-8e0e9c0d] found.
Track   [  CRC   |   V2   ] Status
 01     [4882bcf8|dc411508] (2+0/2) Accurately ripped
 02     [532660e7|11f14960] (2+0/2) Accurately ripped
 03     [099457b0|d3179075] (2+0/2) Accurately ripped
 04     [673040f3|9aedbd3f] (2+0/2) Accurately ripped
 05     [2d64fd32|8a4ec897] (2+0/2) Accurately ripped
 06     [d6423e18|3a47e28e] (2+0/2) Accurately ripped
 07     [6babce6b|323fca17] (2+0/2) Accurately ripped
 08     [b47f0801|ce32e02c] (2+0/2) Accurately ripped
 09     [127ab2fd|08c0c6c7] (2+0/2) Accurately ripped
 10     [11db61d2|88b9fb0d] (2+0/2) Accurately ripped
 11     [4134c08e|a9464481] (2+0/2) Accurately ripped
 12     [51be3373|21e040fa] (2+0/2) Accurately ripped
 13     [90857d02|e217525f] (2+0/2) Accurately ripped

Track Peak [ CRC32  ] [W/O NULL] [  LOG   ]
 --   99.4 [A9A8A38D] [09C12FD4]           
 01   97.1 [FA76FF63] [F028B9DB]   CRC32   
 02   97.1 [5F170CF8] [1E348F35]   CRC32   
 03   96.5 [7D235259] [03A51B53]   CRC32   
 04   97.1 [AF388F0C] [B55288AC]   CRC32   
 05   97.1 [25FBBE1F] [BC8CA620]   CRC32   
 06   97.1 [B8830C43] [990E2096]   CRC32   
 07   92.7 [A7665B82] [DCB633BA]   CRC32   
 08   97.1 [6E36CE2B] [5959D6A1]   CRC32   
 09   97.1 [E71E85BB] [995639E2]   CRC32   
 10   99.4 [10CA8AD6] [AC4C57C3]   CRC32   
 11   97.1 [9055A5EB] [75E3FE3B]   CRC32   
 12   97.0 [E908B153] [5328716D]   CRC32   
 13   96.9 [FC8A2520] [7F9C1224]   CRC32   



Create a new paste based on this one


Comments: