[ create a new paste ] login | about

Link: http://codepad.org/PNC6qznU    [ raw code | fork ]

Plain Text, pasted on Jun 10:
DISC 1
foobar2000 1.3.17 / Dynamic Range Meter 1.1.1
log date: 2018-06-10 13:29:45

--------------------------------------------------------------------------------
Analyzed: The Allman Brothers Band / At Fillmore East
--------------------------------------------------------------------------------

DR         Peak         RMS     Duration Track
--------------------------------------------------------------------------------
DR9       -0.09 dB   -11.28 dB      4:22 01-Statesboro Blues
DR10      -0.09 dB   -11.74 dB      4:36 02-Done Somebody Wrong
DR11      -0.10 dB   -14.06 dB      8:50 03-Stormy Monday
DR10      -0.09 dB   -12.69 dB     19:17 04-You Don't Love Me/Soul Serenade
--------------------------------------------------------------------------------

Number of tracks:  4
Official DR value: DR10

Samplerate:        88200 Hz
Channels:          2
Bits per sample:   24
Bitrate:           2909 kbps
Codec:             FLAC
================================================================================


DISC 2
foobar2000 1.3.17 / Dynamic Range Meter 1.1.1
log date: 2018-06-10 13:30:08

--------------------------------------------------------------------------------
Analyzed: The Allman Brothers Band / At Fillmore East
--------------------------------------------------------------------------------

DR         Peak         RMS     Duration Track
--------------------------------------------------------------------------------
DR9       -0.10 dB   -11.52 dB      5:24 01-Hot'Lanta
DR9       -0.09 dB   -10.85 dB     13:07 02-In Memory Of Elizabeth Reed
DR9       -0.09 dB   -11.97 dB     23:11 03-Whipping Post
--------------------------------------------------------------------------------

Number of tracks:  3
Official DR value: DR9

Samplerate:        88200 Hz
Channels:          2
Bits per sample:   24
Bitrate:           2935 kbps
Codec:             FLAC
================================================================================




Create a new paste based on this one


Comments: