[ create a new paste ] login | about

Link: http://codepad.org/PNE5Zuxe    [ raw code | fork ]

Plain Text, pasted on Aug 3:
foobar2000 1.4.4 / Dynamic Range Meter 1.1.1
log date: 2019-08-02 18:36:40

--------------------------------------------------------------------------------
Analyzed: Earl Klugh / Finger Paintings  {MFSL UHQR)
--------------------------------------------------------------------------------

DR         Peak         RMS     Duration Track
--------------------------------------------------------------------------------
DR15      -2.90 dB   -19.67 dB      4:27 01-Dr. Macumba
DR15      -3.92 dB   -22.17 dB      5:37 02-Long Ago and Far Away
DR16      -0.85 dB   -20.36 dB      3:33 03-Cabo Frio
DR19      -1.09 dB   -23.01 dB      4:41 04-Keep Your Eye on the Sparrow
DR12      -6.23 dB   -20.47 dB      4:12 05-Catherine
DR17      -1.46 dB   -21.11 dB      3:27 06-Dance with Me
DR14      -2.95 dB   -19.95 dB      3:04 07-Jolanta
DR14      -1.86 dB   -18.78 dB      4:08 08-Summer Song
DR15      -2.87 dB   -20.80 dB      3:46 09-This Time
--------------------------------------------------------------------------------

Number of tracks:  9
Official DR value: DR15

Samplerate:        44100 Hz
Channels:          2
Bits per sample:   16
Bitrate:           700 kbps
Codec:             FLAC
================================================================================




Create a new paste based on this one


Comments: