[ create a new paste ] login | about

Link: http://codepad.org/PNsMK2eo    [ raw code | fork ]

Plain Text, pasted on Nov 26:
Exact Audio Copy V0.99 prebeta 4 from 23. January 2008

Отчёт EAC об извлечении, выполненном 3. апреля 2010, 11:45

Roy Orbison / The Soul of Rock and Roll, Disc 4

Дисковод: ASUS    SDRW-08D1S-U   Adapter: 2  ID: 0

Режим чтения                 : Достоверность
Использование точного потока : Да
Отключение кэша аудио        : Да
Использование указателей C2  : Нет

Коррекция смещения при чтении                     : 667
Способность читать области Lead-in и Lead-out     : Да
Заполнение пропущенных сэмплов тишиной            : Да
Удаление блоков с тишиной в начале и конце        : Нет
При вычислениях CRC использовались нулевые сэмплы : Да
Интерфейс                                         : Встроенный Win32-интерфейс для Win NT/2000

Выходной формат : Внутренние WAV-операции
Формат сэмплов  : 44.100 Гц; 16 бит; стерео


TOC извлечённого CD

     Трек |   Старт  | Длительность | Начальный сектор | Конечный сектор 
    ---------------------------------------------------------------------
       1  |  0:00.00 |    4:02.42   |           0      |      18191      
       2  |  4:02.42 |    2:26.67   |       18192      |      29208      
       3  |  6:29.34 |    3:03.01   |       29209      |      42934      
       4  |  9:32.35 |    2:51.44   |       42935      |      55803      
       5  | 12:24.04 |    3:24.61   |       55804      |      71164      
       6  | 15:48.65 |    3:31.07   |       71165      |      86996      
       7  | 19:19.72 |    4:16.71   |       86997      |     106267      
       8  | 23:36.68 |    3:57.66   |      106268      |     124108      
       9  | 27:34.59 |    3:33.36   |      124109      |     140119      
      10  | 31:08.20 |    3:38.52   |      140120      |     156521      
      11  | 34:46.72 |    6:11.04   |      156522      |     184350      
      12  | 40:58.01 |    2:59.23   |      184351      |     197798      
      13  | 43:57.24 |    3:00.67   |      197799      |     211365      
      14  | 46:58.16 |    3:48.10   |      211366      |     228475      
      15  | 50:46.26 |    4:40.08   |      228476      |     249483      
      16  | 55:26.34 |    3:47.48   |      249484      |     266556      
      17  | 59:14.07 |    3:33.25   |      266557      |     282556      
      18  | 62:47.32 |    4:17.60   |      282557      |     301891      
      19  | 67:05.17 |    3:43.29   |      301892      |     318645      
      20  | 70:48.46 |    3:15.39   |      318646      |     333309      
      21  | 74:04.10 |    4:55.09   |      333310      |     355443      


Характеристики диапазона извлечения и сообщения об ошибках

Выбранный диапазон

     Имя файла F:\My Documents\Music\ROY\Roy Orbison - The Soul of Rock and Roll, Disc 4.wav

     Пиковый уровень 100.0 %
     Качество диапазона 99.9 %
     CRC теста AF7297ED
     CRC копии AF7297ED
     Копирование... OK

Ошибок не произошло

 
AccurateRip: сводка
 
Трек  1  точное извлечение (доверие 11)  [542FFBC5]
Трек  2  точное извлечение (доверие 11)  [86F217ED]
Трек  3  точное извлечение (доверие 11)  [8440AB4C]
Трек  4  точное извлечение (доверие 11)  [67D10049]
Трек  5  точное извлечение (доверие 11)  [29B58349]
Трек  6  точное извлечение (доверие 12)  [35A377A7]
Трек  7  точное извлечение (доверие 11)  [B0B8E38A]
Трек  8  точное извлечение (доверие 12)  [D0444597]
Трек  9  точное извлечение (доверие 10)  [72D98D09]
Трек 10  точное извлечение (доверие 11)  [DEAF7FFF]
Трек 11  точное извлечение (доверие 12)  [19A49E42]
Трек 12  точное извлечение (доверие 11)  [C3A67F44]
Трек 13  точное извлечение (доверие 11)  [4D1186B7]
Трек 14  точное извлечение (доверие 11)  [CF66A5CA]
Трек 15  точное извлечение (доверие 11)  [F628BC65]
Трек 16  точное извлечение (доверие 11)  [87DAAD10]
Трек 17  точное извлечение (доверие 11)  [B9123EDA]
Трек 18  точное извлечение (доверие 10)  [55546F58]
Трек 19  точное извлечение (доверие 9)  [3B698F44]
Трек 20  точное извлечение (доверие 11)  [709E0417]
Трек 21  точное извлечение (доверие 10)  [ED2A5BE7]
 
Все треки извлечены точно

Конец отчёта



Create a new paste based on this one


Comments: