[ create a new paste ] login | about

Link: http://codepad.org/PQAgu8mN    [ raw code | fork ]

Plain Text, pasted on Jun 5:
foobar2000 1.4.2 / Dynamic Range Meter 1.1.1
log date: 2019-05-29 21:26:05

--------------------------------------------------------------------------------
Analyzed: Yellow Magic Orchestra / X‚ąěMultiplies (2019 Japan Hybrid SACD)
--------------------------------------------------------------------------------

DR         Peak         RMS     Duration Track
--------------------------------------------------------------------------------
DR10      -0.48 dB   -11.99 dB      0:21 01-Jingle 'Y.M.O.'
DR7       -0.47 dB    -8.86 dB      3:47 02-Nice Age
DR17      -0.79 dB   -20.03 dB      1:56 03-Snakeman Show
DR8       -0.01 dB    -9.72 dB      3:42 04-Tighten Up (Japanese Gentlemen Stand Up Please!)
DR16      -1.99 dB   -21.16 dB      2:06 05-Snakeman Show
DR8       -0.11 dB   -10.06 dB      1:07 06-Here We Go Again - Tighten Up
DR12      -3.77 dB   -18.65 dB      1:26 07-Snakeman Show
DR7       -0.23 dB    -8.61 dB      4:29 08-Citizens Of Science
DR11      -0.73 dB   -16.59 dB      2:09 09-Snakeman Show
DR7       -0.34 dB    -9.39 dB      2:56 10-Multiplies
DR11      -1.74 dB   -15.03 dB      3:45 11-Snakeman Show
DR8       -0.65 dB   -11.39 dB      1:35 12-The End Of Asia
--------------------------------------------------------------------------------

Number of tracks:  12
Official DR value: DR10

Samplerate:        88200 Hz
Channels:          2
Bits per sample:   24
Bitrate:           2676 kbps
Codec:             FLAC
================================================================================




Create a new paste based on this one


Comments: