[ create a new paste ] login | about

Link: http://codepad.org/PRARpHHD    [ raw code | fork ]

Plain Text, pasted on May 23:
foobar2000 1.2.8 / Dynamic Range Meter 1.1.1
log date: 2013-10-08 11:40:29

--------------------------------------------------------------------------------
Analyzed: Los Lobos / This Time (2004 MFSL Hybrid SACD)
--------------------------------------------------------------------------------

DR         Peak         RMS     Duration Track
--------------------------------------------------------------------------------
DR10      -0.40 dB   -12.77 dB      3:31 01-This Time
DR11      -0.01 dB   -12.41 dB      3:44 02-Oh Yeah
DR10      -0.57 dB   -12.01 dB      3:30 03-Viking
DR10      -1.00 dB   -12.82 dB      4:23 04-High Places
DR11      -0.13 dB   -12.55 dB      2:46 05-Cumbia Raza
DR10      -0.38 dB   -12.40 dB      3:06 06-Run Away With You
DR11      -0.58 dB   -13.60 dB      4:07 07-Corazón
DR10      -0.27 dB   -12.54 dB      3:08 08-Some Say, Some Do
DR10      -0.09 dB   -12.36 dB      3:46 09-Turn Around
DR11      -0.48 dB   -13.46 dB      3:11 10-La Playa
DR11      -0.25 dB   -13.59 dB      2:55 11-Why We Wish
--------------------------------------------------------------------------------

Number of tracks:  11
Official DR value: DR11

Samplerate:        88200 Hz
Channels:          2
Bits per sample:   24
Bitrate:           2800 kbps
Codec:             FLAC
================================================================================




Create a new paste based on this one


Comments: