[ create a new paste ] login | about

Link: http://codepad.org/PWy606Ce    [ raw code | fork ]

Plain Text, pasted on Aug 21:
foobar2000 1.3.17 / Dynamic Range Meter 1.1.1
log date: 2018-08-21 09:57:25

--------------------------------------------------------------------------------
Analyzed: R.E.M. / In Time: The Best Of R.E.M. 1988-2003
--------------------------------------------------------------------------------

DR         Peak         RMS     Duration Track
--------------------------------------------------------------------------------
DR11       0.00 dB   -12.49 dB      5:14 01-Man On The Moon
DR7       -0.01 dB   -10.63 dB      5:07 02-The Great Beyond
DR7       -1.53 dB    -9.80 dB      4:07 03-Bad Day
DR11      -1.42 dB   -14.23 dB      3:59 04-What's The Frequency, Kenneth
DR7        0.00 dB    -8.73 dB      4:44 05-All The Way To Reno (You're Gonna Be A Star)
DR11       0.00 dB   -12.45 dB      4:29 06-Losing My Religion
DR8       -0.44 dB   -10.05 dB      5:25 07-E-Bow The Letter
DR11      -1.64 dB   -14.34 dB      3:54 08-Orange Crush (Remastered 2013)
DR7        0.00 dB    -7.92 dB      3:57 09-Imitation Of Life
DR9        0.00 dB   -12.16 dB      3:40 10-Daysleeper
DR6       -0.99 dB    -9.13 dB      4:02 11-Animal
DR11       0.00 dB   -11.98 dB      4:09 12-The Sidewinder Sleeps Tonite
DR11       0.00 dB   -13.81 dB      3:13 13-Stand (Remastered 2013)
DR8       -0.43 dB   -10.37 dB      4:06 14-Electrolite
DR9       -0.27 dB   -10.71 dB      2:48 15-All The Right Friends
DR11       0.00 dB   -13.25 dB      5:20 16-Everybody Hurts
DR10      -0.36 dB   -12.78 dB      3:35 17-At My Most Beautiful
DR11       0.00 dB   -13.19 dB      4:18 18-Nightswimming
--------------------------------------------------------------------------------

Number of tracks:  18
Official DR value: DR9

Samplerate:        48000 Hz
Channels:          2
Bits per sample:   24
Bitrate:           1636 kbps
Codec:             FLAC
================================================================================




Create a new paste based on this one


Comments: