[ create a new paste ] login | about

Link: http://codepad.org/PX9iX61w    [ raw code | fork ]

Plain Text, pasted on Nov 2:
Exact Audio Copy V1.1 from 23. June 2015

EAC extraction logfile from 25. October 2016, 20:36

Lou Reed / Sally Can't Dance

Used drive  : PLEXTOR BD-R  PX-B950SA   Adapter: 1  ID: 1

Read mode               : Secure
Utilize accurate stream : Yes
Defeat audio cache      : Yes
Make use of C2 pointers : No

Read offset correction                      : 6
Overread into Lead-In and Lead-Out          : No
Fill up missing offset samples with silence : Yes
Delete leading and trailing silent blocks   : No
Null samples used in CRC calculations       : Yes
Used interface                              : Native Win32 interface for Win NT & 2000

Used output format : Internal WAV Routines
Sample format      : 44.100 Hz; 16 Bit; Stereo


TOC of the extracted CD

     Track |   Start  |  Length  | Start sector | End sector 
    ---------------------------------------------------------
        1  |  0:00.00 |  4:06.36 |         0    |    18485   
        2  |  4:06.36 |  3:05.44 |     18486    |    32404   
        3  |  7:12.05 |  5:05.35 |     32405    |    55314   
        4  | 12:17.40 |  4:01.59 |     55315    |    73448   
        5  | 16:19.24 |  3:40.27 |     73449    |    89975   
        6  | 19:59.51 |  3:43.00 |     89976    |   106700   
        7  | 23:42.51 |  4:09.29 |    106701    |   125404   
        8  | 27:52.05 |  5:04.69 |    125405    |   148273   


Range status and errors

Selected range

     Filename C:\Lou Reed\2016 RCA & Arista Album Collection (17CD Box Set Sony Music)\1974 Sally Can't Dance\Lou Reed - Sally Can't Dance.wav

     Peak level 100.0 %
     Extraction speed 6.4 X
     Range quality 100.0 %
     Test CRC D4F286D4
     Copy CRC D4F286D4
     Copy OK

No errors occurred

 
AccurateRip summary
 
Track  1  not present in database
Track  2  not present in database
Track  3  not present in database
Track  4  not present in database
Track  5  not present in database
Track  6  not present in database
Track  7  not present in database
Track  8  not present in database
 
None of the tracks are present in the AccurateRip database

End of status report

---- CUETools DB Plugin V2.1.6

[CTDB TOCID: U8b6.Cc71oyRR7pBKH7bkQCp5gQ-] found
Submit result: U8b6.Cc71oyRR7pBKH7bkQCp5gQ- has been confirmed
Track | CTDB Status
  1   | (5/5) Accurately ripped
  2   | (5/5) Accurately ripped
  3   | (5/5) Accurately ripped
  4   | (5/5) Accurately ripped
  5   | (5/5) Accurately ripped
  6   | (5/5) Accurately ripped
  7   | (5/5) Accurately ripped
  8   | (5/5) Accurately ripped


==== Log checksum CBA174B426A49D26FAC57F3D78FE17F0E5D1FC76451A0009E80E40568FA5C6E6 ====



Create a new paste based on this one


Comments: