[ create a new paste ] login | about

Link: http://codepad.org/Paih02Pe    [ raw code | fork ]

Plain Text, pasted on Apr 20:
foobar2000 1.3.17 / Dynamic Range Meter 1.1.1
log date: 2018-04-19 11:47:43

--------------------------------------------------------------------------------
Analyzed: ISAO TOMITA / Clair de Lune  Ultimate edition
--------------------------------------------------------------------------------

DR         Peak         RMS     Duration Track
--------------------------------------------------------------------------------
DR8      -10.96 dB   -29.03 dB      2:11 01-The Snow is Dancing
DR8      -16.32 dB   -33.66 dB      1:55 02-Whistle and Chime
DR7      -12.55 dB   -28.84 dB      3:59 03-Arebesque 1
DR8       -8.06 dB   -26.62 dB      5:51 04-Clair de Lune
DR9       -9.73 dB   -28.47 dB      4:01 05-Jardins sous la pluie
DR8       -9.32 dB   -28.92 dB      4:40 06-Des pas sur la neige
DR8       -8.61 dB   -26.15 dB      6:37 07-La cathedrale engloutie
DR11      -5.29 dB   -29.82 dB      3:35 08-Arebesque 2
DR8       -6.08 dB   -26.86 dB      4:47 09-Reverie
DR7       -8.28 dB   -26.76 dB      3:27 10-La fille aux cheveux de lin
DR7       -8.33 dB   -26.33 dB      3:20 11-Passepied
DR8       -6.20 dB   -25.26 dB      2:54 12-Golliwogg's Cakewalk
DR8       -9.53 dB   -27.69 dB      8:21 13-Nuages
--------------------------------------------------------------------------------

Number of tracks:  13
Official DR value: DR8

Samplerate:        2822400 Hz / PCM Samplerate: 176400 Hz
Channels:          6
Bits per sample:   1
Bitrate:           16934 kbps
Codec:             DST64
================================================================================

--------------------------------------------------------------------------------
Analyzed: ISAO TOMITA / Clair de Lune  Ultimate edition
--------------------------------------------------------------------------------

DR         Peak         RMS     Duration Track
--------------------------------------------------------------------------------
DR12      -7.85 dB   -23.52 dB      2:11 01-The Snow is Dancing
DR12     -16.65 dB   -30.88 dB      1:55 02-Whistle and Chime
DR11     -10.01 dB   -23.85 dB      3:59 03-Arebesque 1
DR12      -5.74 dB   -23.11 dB      5:51 04-Clair de Lune
DR13      -6.41 dB   -23.60 dB      4:01 05-Jardins sous la pluie
DR13      -7.01 dB   -25.17 dB      4:40 06-Des pas sur la neige
DR11      -7.25 dB   -22.60 dB      6:37 07-La cathedrale engloutie
DR17      -5.43 dB   -25.73 dB      3:35 08-Arebesque 2
DR13      -5.72 dB   -24.32 dB      4:47 09-Reverie
DR12      -5.90 dB   -23.09 dB      3:27 10-La fille aux cheveux de lin
DR11      -7.05 dB   -21.79 dB      3:20 11-Passepied
DR12      -5.48 dB   -21.48 dB      2:54 12-Golliwogg's Cakewalk
DR11     -10.00 dB   -24.96 dB      8:21 13-Nuages
--------------------------------------------------------------------------------

Number of tracks:  13
Official DR value: DR12

Samplerate:        2822400 Hz / PCM Samplerate: 176400 Hz
Channels:          2
Bits per sample:   1
Bitrate:           5645 kbps
Codec:             DST64
================================================================================




Create a new paste based on this one


Comments: