[ create a new paste ] login | about

Link: http://codepad.org/Pc0g8J1D    [ raw code | fork ]

Plain Text, pasted on Nov 22:
foobar2000 1.3 / Dynamic Range Meter 1.1.1
log date: 2014-11-06 13:02:41

--------------------------------------------------------------------------------
Analyzed: Mike Bloomfield, Al Kooper, Stephen Stills / Super Session (2104 AF Hybrid SACD)
--------------------------------------------------------------------------------

DR         Peak         RMS     Duration Track
--------------------------------------------------------------------------------
DR13      -0.45 dB   -18.05 dB      7:03 01-Albert's Shuffle
DR13      -0.44 dB   -18.23 dB      4:29 02-Stop
DR14      -0.50 dB   -19.27 dB      3:32 03-Man's Temptation
DR12      -0.18 dB   -17.84 dB      9:16 04-His Holy Modal Majesty
DR13      -0.43 dB   -17.42 dB      7:07 05-Really
DR12      -0.35 dB   -16.37 dB      3:35 06-It Takes A Lot To Laugh, It Takes A Train To Cry
DR14      -0.01 dB   -20.15 dB     11:10 07-Season Of The Witch
DR12      -0.21 dB   -16.19 dB      4:12 08-You Don't Love Me
DR12      -0.59 dB   -20.40 dB      2:24 09-Harvey's Tune
--------------------------------------------------------------------------------

Number of tracks:  9
Official DR value: DR13

Samplerate:        88200 Hz
Channels:          6
Bits per sample:   24
Bitrate:           7017 kbps
Codec:             FLAC
================================================================================




Create a new paste based on this one


Comments: