[ create a new paste ] login | about

Link: http://codepad.org/PfXccyRv    [ raw code | fork ]

Plain Text, pasted on Feb 15:
foobar2000 1.2.8 / Dynamic Range Meter 1.1.1
log date: 2014-01-03 11:17:16

--------------------------------------------------------------------------------
Analyzed: Johnny Cash / At Folsom Prison (1999 Remaster)
--------------------------------------------------------------------------------

DR         Peak         RMS     Duration Track
--------------------------------------------------------------------------------
DR12      -0.01 dB   -14.40 dB      2:42 01-Folsom Prison Blues
DR13      -0.03 dB   -15.74 dB      1:24 02-Busted
DR13      -1.71 dB   -17.67 dB      3:05 03-Dark As The Dungeon
DR12      -0.50 dB   -15.74 dB      1:38 04-I Still Miss Someone
DR12      -0.98 dB   -15.31 dB      3:01 05-Cocaine Blues
DR13      -0.32 dB   -15.78 dB      3:31 06-25 Minutes To Go
DR13      -1.25 dB   -15.62 dB      3:01 07-Orange Blossom Special
DR13      -0.54 dB   -18.86 dB      3:57 08-The Long Black Veil
DR14      -0.75 dB   -18.01 dB      2:11 09-Send A Picture Of Mother
DR13      -1.21 dB   -17.43 dB      1:37 10-The Wall
DR13      -2.12 dB   -18.10 dB      1:30 11-Dirty Old Egg-Suckin' Dog
DR13      -1.47 dB   -17.29 dB      2:17 12-Flushed From The Bathroom Of Your Heart
DR12      -2.89 dB   -18.53 dB      2:25 13-Joe Bean
DR13      -0.49 dB   -15.54 dB      3:12 14-Jackson
DR12      -1.82 dB   -16.58 dB      2:41 15-Give My Love To Rose
DR12      -1.68 dB   -16.40 dB      1:57 16-I Got Stripes
DR12      -1.51 dB   -16.84 dB      7:08 17-The Legend Of John Henry's Hammer
DR13      -1.91 dB   -17.53 dB      2:29 18-Green, Green Grass Of Home
DR13      -0.14 dB   -16.75 dB      6:02 19-Greystone Chapel
--------------------------------------------------------------------------------

Number of tracks:  19
Official DR value: DR13

Samplerate:        88200 Hz
Channels:          2
Bits per sample:   24
Bitrate:           2547 kbps
Codec:             FLAC
================================================================================




Create a new paste based on this one


Comments: