[ create a new paste ] login | about

Link: http://codepad.org/PfiC0Jy5    [ raw code | fork ]

Plain Text, pasted on Nov 5:
16/44
:::::

foobar2000 1.6 / Dynamic Range Meter 1.1.1
log date: 2020-11-05 05:43:20

--------------------------------------------------------------------------------
Analyzed: Eagles / Live From The Forum MMXVIII (Live From The Forum, Inglewood, CA, 9/12, 14, 15/2018)
--------------------------------------------------------------------------------

DR         Peak         RMS     Duration Track
--------------------------------------------------------------------------------
DR10      -0.10 dB   -11.80 dB      3:33 01-Seven Bridges Road
DR11       0.00 dB   -14.64 dB      0:34 02-Joe Walsh: "How ya doin'?"
DR8       -0.08 dB    -9.24 dB      4:15 03-Take It Easy
DR11       0.00 dB   -11.92 dB      4:24 04-One Of These Nights
DR11      -1.95 dB   -19.29 dB      2:13 05-Don Henley: "Good evening, ladies and gentlemen"
DR9       -0.09 dB   -11.26 dB      4:22 06-Take It To The Limit
DR11      -0.11 dB   -13.04 dB      3:05 07-Tequila Sunrise
DR10      -0.09 dB   -11.89 dB      5:46 08-In The City
DR12      -5.48 dB   -21.48 dB      0:48 09-Timothy B. Schmit: "Hey, everybody, that's Joe Walsh"
DR11      -0.09 dB   -13.12 dB      5:08 10-I Can't Tell You Why
DR10      -0.10 dB   -11.84 dB      5:11 11-New Kid In Town
DR13      -9.54 dB   -26.35 dB      1:26 12-Don Henley: "Just want to thank all of you..."
DR9       -0.10 dB   -10.87 dB      3:21 13-How Long
DR13      -7.19 dB   -22.65 dB      0:36 14-Deacon Frey: "Hello, everybody..."
DR11      -0.10 dB   -12.95 dB      4:30 15-Peaceful Easy Feeling
DR10      -0.09 dB   -11.99 dB      4:18 16-Ol' 55
DR12      -0.13 dB   -13.77 dB      6:31 17-Lyin' Eyes
DR12      -1.29 dB   -15.19 dB      4:14 18-Love Will Keep Us Alive
DR12      -6.77 dB   -22.49 dB      0:36 19-Vince Gill: "How's everybody doing?"
DR11      -0.10 dB   -11.92 dB      5:18 20-Don't Let Our Love Start Slippin' Away
DR11      -0.09 dB   -13.26 dB      5:07 21-Those Shoes
DR9       -0.09 dB   -10.79 dB      4:22 22-Already Gone 
DR10      -0.08 dB   -11.23 dB      3:58 23-Walk Away
DR14      -6.53 dB   -24.98 dB      1:55 24-Joe Walsh: "Is everybody OK?"
DR11      -0.10 dB   -13.64 dB      8:04 25-Life's Been Good
DR11      -0.10 dB   -12.66 dB      5:16 26-The Boys Of Summer
DR10      -0.09 dB   -11.99 dB      4:29 27-Heartache Tonight
DR11      -0.10 dB   -13.36 dB      4:44 28-Funk #49
DR10      -0.08 dB   -11.28 dB      5:55 29-Life In The Fast Lane
DR13      -0.10 dB   -14.97 dB      8:27 30-Hotel California
DR11      -0.02 dB   -13.00 dB      6:30 31-Rocky Mountain Way
DR11      -0.44 dB   -15.80 dB      4:10 32-Desperado
DR9        0.00 dB   -10.62 dB      4:38 33-The Long Run
--------------------------------------------------------------------------------

Number of tracks:  33
Official DR value: DR11

Samplerate:        44100 Hz
Channels:          2
Bits per sample:   16
Bitrate:           940 kbps
Codec:             FLAC
================================================================================


24-48
:::::

foobar2000 1.6 / Dynamic Range Meter 1.1.1
log date: 2020-11-05 05:31:49

--------------------------------------------------------------------------------
Analyzed: Eagles / Live From The Forum MMXVIII (Live From The Forum, Inglewood, CA, 9/12, 14, 15/2018)
--------------------------------------------------------------------------------

DR         Peak         RMS     Duration Track
--------------------------------------------------------------------------------
DR10      -0.10 dB   -11.80 dB      3:33 01-Seven Bridges Road
DR11       0.00 dB   -14.64 dB      0:34 02-Joe Walsh: "How ya doin'?"
DR8       -0.10 dB    -9.24 dB      4:15 03-Take It Easy
DR11       0.00 dB   -11.92 dB      4:24 04-One Of These Nights
DR11      -1.95 dB   -19.29 dB      2:13 05-Don Henley: "Good evening, ladies and gentlemen"
DR9       -0.10 dB   -11.26 dB      4:22 06-Take It To The Limit
DR11      -0.10 dB   -13.04 dB      3:05 07-Tequila Sunrise
DR10      -0.10 dB   -11.89 dB      5:46 08-In The City
DR12      -5.43 dB   -21.48 dB      0:48 09-Timothy B. Schmit: "Hey, everybody, that's Joe Walsh"
DR11      -0.10 dB   -13.12 dB      5:08 10-I Can't Tell You Why
DR10      -0.10 dB   -11.84 dB      5:11 11-New Kid In Town
DR13      -9.55 dB   -26.35 dB      1:26 12-Don Henley: "Just want to thank all of you..."
DR9       -0.10 dB   -10.87 dB      3:21 13-How Long
DR13      -7.18 dB   -22.64 dB      0:36 14-Deacon Frey: "Hello, everybody..."
DR11      -0.17 dB   -12.95 dB      4:30 15-Peaceful Easy Feeling
DR10      -0.10 dB   -11.99 dB      4:18 16-Ol' 55
DR12      -0.11 dB   -13.77 dB      6:31 17-Lyin' Eyes
DR12      -1.29 dB   -15.19 dB      4:14 18-Love Will Keep Us Alive
DR12      -6.78 dB   -22.49 dB      0:36 19-Vince Gill: "How's everybody doing?"
DR11      -0.10 dB   -11.92 dB      5:18 20-Don't Let Our Love Start Slippin' Away
DR11      -0.10 dB   -13.26 dB      5:07 21-Those Shoes
DR9       -0.10 dB   -10.79 dB      4:22 22-Already Gone 
DR10      -0.10 dB   -11.23 dB      3:58 23-Walk Away
DR14      -6.58 dB   -24.98 dB      1:55 24-Joe Walsh: "Is everybody OK?"
DR11      -0.10 dB   -13.64 dB      8:04 25-Life's Been Good
DR11      -0.10 dB   -12.66 dB      5:16 26-The Boys Of Summer
DR10      -0.10 dB   -11.98 dB      4:29 27-Heartache Tonight
DR11      -0.10 dB   -13.35 dB      4:44 28-Funk #49
DR10      -0.10 dB   -11.28 dB      5:55 29-Life In The Fast Lane
DR13      -0.10 dB   -14.96 dB      8:27 30-Hotel California
DR11      -0.02 dB   -13.00 dB      6:30 31-Rocky Mountain Way
DR11      -0.45 dB   -15.80 dB      4:10 32-Desperado
DR9        0.00 dB   -10.62 dB      4:38 33-The Long Run
--------------------------------------------------------------------------------

Number of tracks:  33
Official DR value: DR11

Samplerate:        48000 Hz
Channels:          2
Bits per sample:   24
Bitrate:           1754 kbps
Codec:             FLAC
================================================================================




Create a new paste based on this one


Comments: