[ create a new paste ] login | about

Link: http://codepad.org/Ph2yXcUs    [ raw code | fork ]

Plain Text, pasted on Jul 9:
Exact Audio Copy V1.0 beta 3 from 29. August 2011

EAC extraction logfile from 2. April 2016, 15:36

Ben Liebrand / Grand 12-Inches14 (CD3)

Used drive  : MATSHITADVD-RAM UJ8FBS   Adapter: 0  ID: 0

Read mode               : Secure
Utilize accurate stream : Yes
Defeat audio cache      : Yes
Make use of C2 pointers : No

Read offset correction                      : 6
Overread into Lead-In and Lead-Out          : No
Fill up missing offset samples with silence : Yes
Delete leading and trailing silent blocks   : No
Null samples used in CRC calculations       : Yes
Used interface                              : Native Win32 interface for Win NT & 2000
Gap handling                                : Appended to previous track

Used output format              : User Defined Encoder
Selected bitrate                : 896 kBit/s
Quality                         : High
Add ID3 tag                     : No
Command line compressor         : C:\Program Files (x86)\FLAC\flac.exe
Additional command line options : -8 -V -T "ARTIST=%artist%" -T "TITLE=%title%" -T "ALBUM=%albumtitle%" -T "DATE=%year%" -T "TRACKNUMBER=%tracknr%" -T "GENRE=%genre%" -T "PERFORMER=%albuminterpret%" -T "COMPOSER=%composer%" %haslyrics%--tag-from-file=LYRICS="%lyricsfile%"%haslyrics% -T "ALBUMARTIST=%albumartist%" -T "DISCNUMBER=%cdnumber%" -T "TOTALDISCS=%totalcds%" -T "TOTALTRACKS=%numtracks%" -T "COMMENT=%comment%" %source% -o %dest%


TOC of the extracted CD

     Track |   Start  |  Length  | Start sector | End sector 
    ---------------------------------------------------------
        1  |  0:00.00 |  6:23.58 |         0    |    28782   
        2  |  6:23.58 | 12:22.44 |     28783    |    84476   
        3  | 18:46.27 |  5:42.30 |     84477    |   110156   
        4  | 24:28.57 |  6:14.15 |    110157    |   138221   
        5  | 30:42.72 |  6:15.59 |    138222    |   166405   
        6  | 36:58.56 |  6:48.30 |    166406    |   197035   
        7  | 43:47.11 |  7:45.39 |    197036    |   231949   
        8  | 51:32.50 |  7:42.67 |    231950    |   266666   
        9  | 59:15.42 |  6:51.71 |    266667    |   297562   
       10  | 66:07.38 |  5:57.64 |    297563    |   324401   


Track  1

     Filename C:\Users\alessandro\Desktop\what.cd\Grand 12-Inches 14\01 Earth Wind & Fire Magnetic (Extended Dance Remix).wav

     Pre-gap length  0:00:02.00

     Peak level 99.0 %
     Extraction speed 2.9 X
     Track quality 99.9 %
     Test CRC 7FC0EDB9
     Copy CRC 7FC0EDB9
     Track not present in AccurateRip database
     Copy OK

Track  2

     Filename C:\Users\alessandro\Desktop\what.cd\Grand 12-Inches 14\02 Propaganda Duel (Blank & Jones So80S Reconstruction).wav

     Pre-gap length  0:00:02.00

     Peak level 93.4 %
     Extraction speed 4.1 X
     Track quality 100.0 %
     Test CRC 707943BA
     Copy CRC 707943BA
     Track not present in AccurateRip database
     Copy OK

Track  3

     Filename C:\Users\alessandro\Desktop\what.cd\Grand 12-Inches 14\03 Murray Head One Night In Bangkok (Long Version).wav

     Pre-gap length  0:00:02.00

     Peak level 85.8 %
     Extraction speed 4.5 X
     Track quality 100.0 %
     Test CRC 9EB9E092
     Copy CRC 9EB9E092
     Track not present in AccurateRip database
     Copy OK

Track  4

     Filename C:\Users\alessandro\Desktop\what.cd\Grand 12-Inches 14\04 Funk Deluxe This Time (12'' Mix).wav

     Pre-gap length  0:00:02.00

     Peak level 98.8 %
     Extraction speed 4.8 X
     Track quality 100.0 %
     Test CRC 222A4833
     Copy CRC 222A4833
     Track not present in AccurateRip database
     Copy OK

Track  5

     Filename C:\Users\alessandro\Desktop\what.cd\Grand 12-Inches 14\05 Camouflage The Great Commandment (Original US 12'' Mix - Remastered Version).wav

     Pre-gap length  0:00:02.00

     Peak level 98.8 %
     Extraction speed 4.5 X
     Track quality 99.9 %
     Test CRC 04BCDA80
     Copy CRC 04BCDA80
     Track not present in AccurateRip database
     Copy OK

Track  6

     Filename C:\Users\alessandro\Desktop\what.cd\Grand 12-Inches 14\06 Lisa Lisa & Cult Jam With Full Force I Wonder If I Take You Home (Extended Version).wav

     Pre-gap length  0:00:02.00

     Peak level 93.3 %
     Extraction speed 5.5 X
     Track quality 100.0 %
     Test CRC 9BD564D6
     Copy CRC 9BD564D6
     Track not present in AccurateRip database
     Copy OK

Track  7

     Filename C:\Users\alessandro\Desktop\what.cd\Grand 12-Inches 14\07 Club Nouveau Lean On Me (Remix).wav

     Pre-gap length  0:00:02.00

     Peak level 98.8 %
     Extraction speed 5.9 X
     Track quality 100.0 %
     Test CRC 291044A5
     Copy CRC 291044A5
     Track not present in AccurateRip database
     Copy OK

Track  8

     Filename C:\Users\alessandro\Desktop\what.cd\Grand 12-Inches 14\08 Nightlife Unlimited Dance, Freak & Boogie (Special 12'' Disco Mix).wav

     Pre-gap length  0:00:02.00

     Peak level 98.8 %
     Extraction speed 6.2 X
     Track quality 100.0 %
     Test CRC E4BF4DB3
     Copy CRC E4BF4DB3
     Track not present in AccurateRip database
     Copy OK

Track  9

     Filename C:\Users\alessandro\Desktop\what.cd\Grand 12-Inches 14\09 Mother's Finest Dis Go Dis Way, Dis Go Dat Way (12'' Version).wav

     Pre-gap length  0:00:02.00

     Peak level 98.8 %
     Extraction speed 6.4 X
     Track quality 100.0 %
     Test CRC 6F4B3CFE
     Copy CRC 6F4B3CFE
     Track not present in AccurateRip database
     Copy OK

Track 10

     Filename C:\Users\alessandro\Desktop\what.cd\Grand 12-Inches 14\10 Pieces Of A Dream Mt. Airy Groove (Instrumental Version).wav

     Pre-gap length  0:00:02.00

     Peak level 76.3 %
     Extraction speed 6.6 X
     Track quality 100.0 %
     Test CRC 62F205F1
     Copy CRC 62F205F1
     Track not present in AccurateRip database
     Copy OK


None of the tracks are present in the AccurateRip database

No errors occurred

End of status report

---- CUETools DB Plugin V2.1.3

[CTDB TOCID: CIBvS0seWHbef4pyNCsnPOOGZjg-] found, Submit result: CIBvS0seWHbef4pyNCsnPOOGZjg- has been confirmed
[04a8fe77] (10/10) Accurately ripped


==== Log checksum F969DDEEB178913FCC58E1E9F68042DDE03892379C7A66C019551A0D875D8DDD ====



Create a new paste based on this one


Comments: