[ create a new paste ] login | about

Link: http://codepad.org/PioIS0K8    [ raw code | fork ]

Plain Text, pasted on Jul 7:
foobar2000 1.3.15 / Dynamic Range Meter 1.1.1
log date: 2017-07-07 10:57:15

--------------------------------------------------------------------------------
Analyzed: Deep Purple / Machine Head (2001 DVD-Audio)
--------------------------------------------------------------------------------

DR         Peak         RMS     Duration Track
--------------------------------------------------------------------------------
DR10       0.00 dB   -13.32 dB      6:10 01-Highway Star
DR10       0.00 dB   -14.77 dB      4:53 02-Maybe I'm A Leo
DR11       0.00 dB   -14.42 dB      5:09 03-Pictures Of Home
DR11       0.00 dB   -15.74 dB      4:01 04-Never Before
DR11       0.00 dB   -15.38 dB      6:13 05-Smoke On The Water
DR12       0.00 dB   -17.59 dB      7:24 06-Lazy
DR11       0.00 dB   -14.62 dB      4:37 07-Space Truckin'
DR13      -0.05 dB   -18.23 dB      3:28 08-When A Blind Man Cries
--------------------------------------------------------------------------------

Number of tracks:  8
Official DR value: DR11

Samplerate:        96000 Hz
Channels:          6
Bits per sample:   24
Bitrate:           6972 kbps
Codec:             FLAC
================================================================================




Create a new paste based on this one


Comments: