[ create a new paste ] login | about

Link: http://codepad.org/PnFN2ENX    [ raw code | fork ]

Plain Text, pasted on Nov 11:
Exact Audio Copy V0.99 prebeta 5 from 4. May 2009

Отчёт EAC об извлечении, выполненном 11. декабря 2010, 16:11

The Moody Blues / On The Threshold Of A Dream (MFSL)

Дисковод: Optiarc DVD RW AD-7200S   Adapter: 2  ID: 0

Режим чтения                 : Достоверность
Использование точного потока : Да
Отключение кэша аудио        : Да
Использование указателей C2  : Нет

Коррекция смещения при чтении                     : 48
Способность читать области Lead-in и Lead-out     : Нет
Заполнение пропущенных сэмплов тишиной            : Да
Удаление блоков с тишиной в начале и конце        : Нет
При вычислениях CRC использовались нулевые сэмплы : Да
Интерфейс                                         : Встроенный Win32-интерфейс для Win NT/2000

Выходной формат : Внутренние WAV-операции
Формат сэмплов  : 44.100 Гц; 16 бит; стерео


TOC извлечённого CD

     Трек |   Старт  | Длительность | Начальный сектор | Конечный сектор 
    ---------------------------------------------------------------------
       1  |  0:00.00 |    2:08.22   |           0      |       9621      
       2  |  2:08.22 |    2:34.53   |        9622      |      21224      
       3  |  4:43.00 |    3:56.47   |       21225      |      38971      
       4  |  8:39.47 |    2:19.20   |       38972      |      49416      
       5  | 10:58.67 |    2:55.23   |       49417      |      62564      
       6  | 13:54.15 |    3:08.02   |       62565      |      76666      
       7  | 17:02.17 |    4:43.50   |       76667      |      97941      
       8  | 21:45.67 |    2:43.20   |       97942      |     110186      
       9  | 24:29.12 |    3:30.70   |      110187      |     126006      
      10  | 28:00.07 |    0:56.70   |      126007      |     130276      
      11  | 28:57.02 |    1:20.68   |      130277      |     136344      
      12  | 30:17.70 |    4:08.50   |      136345      |     154994      
      13  | 34:26.45 |    2:36.30   |      154995      |     166724      


Характеристики диапазона извлечения и сообщения об ошибках

Выбранный диапазон

     Имя файла E:\МОИ РАЗДАЧИ\The Moody Blues - On The Threshold Of A Dream (MFSL)\The Moody Blues - On The Threshold Of A Dream (MFSL).wav

     Пиковый уровень 100.0 %
     Качество диапазона 100.0 %
     CRC теста 5657A109
     CRC копии 5657A109
     Копирование... OK

Ошибок не произошло

 
AccurateRip: сводка
 
Трек  1  точное извлечение (доверие 6)  [9EA06F64]
Трек  2  точное извлечение (доверие 6)  [C164F819]
Трек  3  точное извлечение (доверие 6)  [4D1B3ADF]
Трек  4  точное извлечение (доверие 6)  [B38A762D]
Трек  5  точное извлечение (доверие 6)  [82E5BF6B]
Трек  6  точное извлечение (доверие 6)  [401868E1]
Трек  7  точное извлечение (доверие 6)  [B6759D12]
Трек  8  точное извлечение (доверие 6)  [6D931746]
Трек  9  точное извлечение (доверие 6)  [BCA3B27F]
Трек 10  точное извлечение (доверие 6)  [DEBE376F]
Трек 11  точное извлечение (доверие 6)  [EEA8EA2C]
Трек 12  точное извлечение (доверие 6)  [81460650]
Трек 13  точное извлечение (доверие 6)  [7C12A4AF]
 
Все треки извлечены точно

Конец отчёта



Create a new paste based on this one


Comments: