[ create a new paste ] login | about

Link: http://codepad.org/PoxDS9k9    [ raw code | fork ]

Plain Text, pasted on May 8:
foobar2000 1.4.1 / Dynamic Range Meter 1.1.1
log date: 2019-05-07 18:32:10

--------------------------------------------------------------------------------
Analyzed: ? / ?
--------------------------------------------------------------------------------

DR         Peak         RMS     Duration Track
--------------------------------------------------------------------------------
DR16      -3.99 dB   -24.44 dB      3:26 01-SPRINGSVILLE
DR13      -8.14 dB   -27.78 dB      3:55 02-THE MAIDS OF CADIZ
DR16      -2.89 dB   -25.22 dB      3:32 03-THE DUKE
DR16      -3.33 dB   -27.56 dB      4:31 04-MY SHIP
DR16      -2.65 dB   -26.31 dB      3:31 05-MILES AHEAD
DR15      -4.24 dB   -25.75 dB      5:19 06-BLUES FOR PABLO
DR17      -5.35 dB   -25.48 dB      4:35 07-NEW RHUMBA
DR14     -11.48 dB   -30.50 dB      2:41 08-THE MEANING OF THE BLUES
DR14      -8.54 dB   -29.21 dB      2:25 09-LAMENT
DR15      -4.81 dB   -26.51 dB      3:03 10-I DON'T WANNA BE KISSED (BY ANYONE BUT YOU)
--------------------------------------------------------------------------------

Number of tracks:  10
Official DR value: DR15

Samplerate:        2822400 Hz / PCM Samplerate: 176400 Hz
Channels:          2
Bits per sample:   1
Bitrate:           5645 kbps
Codec:             DSD64
================================================================================




Create a new paste based on this one


Comments: