[ create a new paste ] login | about

Link: http://codepad.org/PtTMOYTn    [ raw code | fork ]

Plain Text, pasted on Dec 29:
Exact Audio Copy V1.3 from 2. September 2016

EAC extraction logfile from 18. December 2018, 9:58

Kate Bush / The Sensual World

Used drive  : PLEXTOR BD-R  PX-B950SA   Adapter: 1  ID: 1

Read mode               : Secure
Utilize accurate stream : Yes
Defeat audio cache      : Yes
Make use of C2 pointers : No

Read offset correction                      : 6
Overread into Lead-In and Lead-Out          : No
Fill up missing offset samples with silence : Yes
Delete leading and trailing silent blocks   : No
Null samples used in CRC calculations       : Yes
Used interface                              : Native Win32 interface for Win NT & 2000

Used output format : Internal WAV Routines
Sample format      : 44.100 Hz; 16 Bit; Stereo


TOC of the extracted CD

     Track |   Start  |  Length  | Start sector | End sector 
    ---------------------------------------------------------
        1  |  0:00.00 |  3:57.70 |         0    |    17844   
        2  |  3:57.70 |  4:42.13 |     17845    |    39007   
        3  |  8:40.08 |  5:06.65 |     39008    |    62022   
        4  | 13:46.73 |  3:12.39 |     62023    |    76461   
        5  | 16:59.37 |  5:20.43 |     76462    |   100504   
        6  | 22:20.05 |  4:45.72 |    100505    |   121951   
        7  | 27:06.02 |  3:30.12 |    121952    |   137713   
        8  | 30:36.14 |  3:44.57 |    137714    |   154570   
        9  | 34:20.71 |  4:07.16 |    154571    |   173111   
       10  | 38:28.12 |  3:38.35 |    173112    |   189496   


Range status and errors

Selected range

     Filename C:\Kate Bush\2018 Remastered Part I (7CD Box Set Parlophone Records)\1989 The Sensual World\Kate Bush - The Sensual World.wav

     Peak level 99.6 %
     Extraction speed 6.9 X
     Range quality 100.0 %
     Test CRC 795F31B9
     Copy CRC 795F31B9
     Copy OK

No errors occurred

 
AccurateRip summary
 
Track  1  not present in database
Track  2  not present in database
Track  3  not present in database
Track  4  not present in database
Track  5  not present in database
Track  6  not present in database
Track  7  not present in database
Track  8  not present in database
Track  9  not present in database
Track 10  not present in database
 
None of the tracks are present in the AccurateRip database

End of status report

---- CUETools DB Plugin V2.1.6

[CTDB TOCID: Y__sAMcqc50pK4ZbsgCrAanG6dE-] found
Submit result: Y__sAMcqc50pK4ZbsgCrAanG6dE- has been confirmed
Track | CTDB Status
  1   | (77/77) Accurately ripped
  2   | (77/77) Accurately ripped
  3   | (77/77) Accurately ripped
  4   | (77/77) Accurately ripped
  5   | (77/77) Accurately ripped
  6   | (77/77) Accurately ripped
  7   | (77/77) Accurately ripped
  8   | (77/77) Accurately ripped
  9   | (77/77) Accurately ripped
 10   | (77/77) Accurately ripped


==== Log checksum BDB14AA447D04A66EB1722AAB86B538C62A033FBEF1D90A2D65E970D66261BB1 ====



Create a new paste based on this one


Comments: