[ create a new paste ] login | about

Link: http://codepad.org/PuFN5gog    [ raw code | fork ]

Plain Text, pasted on Mar 22:
Exact Audio Copy V0.99 prebeta 4 from 23. January 2008

Отчёт EAC об извлечении, выполненном 15. ноября 2010, 19:38

The Blues Band / The Blues Band Box - Disk 1

Дисковод: Optiarc DVD RW AD-7200A   Adapter: 0  ID: 1

Режим чтения                 : Достоверность
Использование точного потока : Да
Отключение кэша аудио        : Да
Использование указателей C2  : Нет

Коррекция смещения при чтении                     : 48
Способность читать области Lead-in и Lead-out     : Нет
Заполнение пропущенных сэмплов тишиной            : Да
Удаление блоков с тишиной в начале и конце        : Нет
При вычислениях CRC использовались нулевые сэмплы : Да
Интерфейс                                         : Встроенный Win32-интерфейс для Win NT/2000

Выходной формат          : Пользовательский кодировщик
Выбранный битрейт        : 128 kBit/s
Качество                 : Высокий
Добавление ID3-тэга      : Нет
Утилита сжатия           : C:\Program Files\Exact Audio Copy\wavpack.exe
Дополнительные параметры : -w "Artist=%a" -w "Title=%t" -w "Album=%g" -w "Year=%y" -w "Track=%n" -w "Genre=%m" -h %s %d


TOC извлечённого CD

     Трек |   Старт  | Длительность | Начальный сектор | Конечный сектор 
    ---------------------------------------------------------------------
       1  |  0:00.00 |    3:46.25   |           0      |      16974      
       2  |  3:46.25 |    3:56.51   |       16975      |      34725      
       3  |  7:43.01 |    2:04.53   |       34726      |      44078      
       4  |  9:47.54 |    4:58.39   |       44079      |      66467      
       5  | 14:46.18 |    3:21.38   |       66468      |      81580      
       6  | 18:07.56 |    3:04.71   |       81581      |      95451      
       7  | 21:12.52 |    3:09.44   |       95452      |     109670      
       8  | 24:22.21 |    4:06.00   |      109671      |     128120      
       9  | 28:28.21 |    3:05.32   |      128121      |     142027      
      10  | 31:33.53 |    2:37.39   |      142028      |     153841      
      11  | 34:11.17 |    3:25.10   |      153842      |     169226      
      12  | 37:36.27 |    4:49.13   |      169227      |     190914      
      13  | 42:25.40 |    3:49.12   |      190915      |     208101      
      14  | 46:14.52 |    2:42.08   |      208102      |     220259      
      15  | 48:56.60 |    4:05.64   |      220260      |     238698      
      16  | 53:02.49 |    3:48.53   |      238699      |     255851      
      17  | 56:51.27 |    2:43.29   |      255852      |     268105      
      18  | 59:34.56 |    3:18.03   |      268106      |     282958      
      19  | 62:52.59 |    3:53.47   |      282959      |     300480      
      20  | 66:46.31 |    3:19.36   |      300481      |     315441      


Характеристики диапазона извлечения и сообщения об ошибках

Выбранный диапазон

     Имя файла Y:\Releases\The Blues Band\The Blues Band Box (2005)\The Blues Band - The Blues Band Box (2005)\The Blues Band - The Blues Band Box - Disk 1.wav

     Пиковый уровень 100.0 %
     Качество диапазона 99.9 %
     CRC теста F135CD37
     CRC копии F135CD37
     Копирование... OK

Ошибок не произошло

 
AccurateRip: сводка
 
Трек  1  точное извлечение (доверие 3)  [94A8C2FC]
Трек  2  точное извлечение (доверие 3)  [6052D778]
Трек  3  точное извлечение (доверие 3)  [B978B0A9]
Трек  4  точное извлечение (доверие 3)  [993FC186]
Трек  5  точное извлечение (доверие 3)  [7A350B02]
Трек  6  точное извлечение (доверие 3)  [A6EB1C99]
Трек  7  точное извлечение (доверие 3)  [B6730B30]
Трек  8  точное извлечение (доверие 3)  [96F37790]
Трек  9  точное извлечение (доверие 3)  [49347111]
Трек 10  точное извлечение (доверие 3)  [31573B78]
Трек 11  точное извлечение (доверие 3)  [98F1D79E]
Трек 12  точное извлечение (доверие 3)  [51F1149C]
Трек 13  точное извлечение (доверие 3)  [0230BB56]
Трек 14  точное извлечение (доверие 3)  [C9EBD220]
Трек 15  точное извлечение (доверие 3)  [CEDFCA25]
Трек 16  точное извлечение (доверие 3)  [1E9FADC0]
Трек 17  точное извлечение (доверие 3)  [D833CED4]
Трек 18  точное извлечение (доверие 3)  [4F14E046]
Трек 19  точное извлечение (доверие 3)  [DD996D38]
Трек 20  точное извлечение (доверие 3)  [F803EE0B]
 
Все треки извлечены точно

Конец отчёта



Create a new paste based on this one


Comments: