[ create a new paste ] login | about

Link: http://codepad.org/PvOEG5Sr    [ raw code | fork ]

Plain Text, pasted on Jul 14:
Exact Audio Copy V1.3 from 2. September 2016

EAC extraction logfile from 2. September 2017, 23:33

Spirit / Spirit (2017 AF)

Used drive  : PLEXTOR CD-R   PREMIUM   Adapter: 1  ID: 1

Read mode               : Secure
Utilize accurate stream : Yes
Defeat audio cache      : Yes
Make use of C2 pointers : No

Read offset correction                      : 30
Overread into Lead-In and Lead-Out          : No
Fill up missing offset samples with silence : Yes
Delete leading and trailing silent blocks   : No
Null samples used in CRC calculations       : Yes
Used interface                              : Native Win32 interface for Win NT & 2000
Gap handling                                : Appended to previous track

Used output format              : User Defined Encoder
Selected bitrate                : 768 kBit/s
Quality                         : High
Add ID3 tag                     : No
Command line compressor         : C:\Program Files (x86)\Exact Audio Copy\FLAC\FLAC.EXE
Additional command line options : -6 -e -p -V -T "ARTIST=%artist%" -T "TITLE=%title%" -T "ALBUM=%albumtitle%" -T "DATE=%year%" -T "TRACKNUMBER=%tracknr%" -T "GENRE=%genre%" -T "PERFORMER=%albuminterpret%" -T "COMPOSER=%composer%" %haslyrics%--tag-from-file=LYRICS="%lyricsfile%"%haslyrics% -T "ALBUMARTIST=%albumartist%" -T "DISCNUMBER=%cdnumber%" -T "TOTALDISCS=%totalcds%" -T "TOTALTRACKS=%numtracks%" -T "COMMENT=%comment%" %source% -o %dest%


TOC of the extracted CD

     Track |   Start  |  Length  | Start sector | End sector 
    ---------------------------------------------------------
        1  |  0:00.00 |  3:12.48 |         0    |    14447   
        2  |  3:12.48 |  2:44.40 |     14448    |    26787   
        3  |  5:57.13 |  5:17.23 |     26788    |    50585   
        4  | 11:14.36 |  2:37.41 |     50586    |    62401   
        5  | 13:52.02 |  3:17.46 |     62402    |    77222   
        6  | 17:09.48 |  2:51.57 |     77223    |    90104   
        7  | 20:01.30 |  3:37.74 |     90105    |   106453   
        8  | 23:39.29 |  3:50.22 |    106454    |   123725   
        9  | 27:29.51 |  2:11.12 |    123726    |   133562   
       10  | 29:40.63 |  2:48.13 |    133563    |   146175   
       11  | 32:29.01 | 10:48.68 |    146176    |   194843   
       12  | 43:17.69 |  3:05.43 |    194844    |   208761   
       13  | 46:23.37 |  4:30.60 |    208762    |   229071   
       14  | 50:54.22 |  3:14.18 |    229072    |   243639   
       15  | 54:08.40 |  9:43.54 |    243640    |   287418   


Track  1

     Filename C:\tmp\00_RIPS\01 - Fresh-Garbage.wav

     Pre-gap length  0:00:02.00

     Peak level 99.6 %
     Extraction speed 8.5 X
     Track quality 100.0 %
     Test CRC 3D047EF8
     Copy CRC 3D047EF8
     Accurately ripped (confidence 2)  [F00E76F1]  (AR v2)
     Copy OK

Track  2

     Filename C:\tmp\00_RIPS\02 - Uncle Jack.wav

     Peak level 88.6 %
     Extraction speed 9.1 X
     Track quality 100.0 %
     Test CRC 5E7E818C
     Copy CRC 5E7E818C
     Accurately ripped (confidence 2)  [BED347A3]  (AR v2)
     Copy OK

Track  3

     Filename C:\tmp\00_RIPS\03 - Mechanical World.wav

     Peak level 98.3 %
     Extraction speed 10.2 X
     Track quality 100.0 %
     Test CRC 559FD267
     Copy CRC 559FD267
     Accurately ripped (confidence 2)  [14F293BA]  (AR v2)
     Copy OK

Track  4

     Filename C:\tmp\00_RIPS\04 - Taurus.wav

     Peak level 77.7 %
     Extraction speed 10.4 X
     Track quality 100.0 %
     Test CRC EBC1C695
     Copy CRC EBC1C695
     Accurately ripped (confidence 2)  [718BB4F9]  (AR v2)
     Copy OK

Track  5

     Filename C:\tmp\00_RIPS\05 - Girl In Your Eye.wav

     Peak level 77.4 %
     Extraction speed 11.1 X
     Track quality 100.0 %
     Test CRC F45D530E
     Copy CRC F45D530E
     Accurately ripped (confidence 2)  [F147713A]  (AR v2)
     Copy OK

Track  6

     Filename C:\tmp\00_RIPS\06 - Straight Arrow.wav

     Peak level 97.9 %
     Extraction speed 11.5 X
     Track quality 100.0 %
     Test CRC A49E05C0
     Copy CRC A49E05C0
     Accurately ripped (confidence 2)  [B5B2E839]  (AR v2)
     Copy OK

Track  7

     Filename C:\tmp\00_RIPS\07 - Topanga Windows.wav

     Peak level 98.0 %
     Extraction speed 12.1 X
     Track quality 100.0 %
     Test CRC E4883CCC
     Copy CRC E4883CCC
     Accurately ripped (confidence 2)  [EF1DCF1B]  (AR v2)
     Copy OK

Track  8

     Filename C:\tmp\00_RIPS\08 - Gramophone Man.wav

     Peak level 98.0 %
     Extraction speed 12.7 X
     Track quality 100.0 %
     Test CRC 5CCAC368
     Copy CRC 5CCAC368
     Accurately ripped (confidence 2)  [0A503FCF]  (AR v2)
     Copy OK

Track  9

     Filename C:\tmp\00_RIPS\09 - Water Woman.wav

     Peak level 66.9 %
     Extraction speed 9.4 X
     Track quality 99.9 %
     Test CRC E9ED583F
     Copy CRC E9ED583F
     Accurately ripped (confidence 2)  [92DAD7B9]  (AR v2)
     Copy OK

Track 10

     Filename C:\tmp\00_RIPS\10 - The Great Canyon Fire In General.wav

     Peak level 97.8 %
     Extraction speed 13.1 X
     Track quality 100.0 %
     Test CRC 019059BF
     Copy CRC 019059BF
     Accurately ripped (confidence 2)  [1A4D28CD]  (AR v2)
     Copy OK

Track 11

     Filename C:\tmp\00_RIPS\11 - Elijah.wav

     Peak level 99.7 %
     Extraction speed 14.9 X
     Track quality 100.0 %
     Test CRC CC7376F5
     Copy CRC CC7376F5
     Accurately ripped (confidence 2)  [7C5EDF94]  (AR v2)
     Copy OK

Track 12

     Filename C:\tmp\00_RIPS\12 - Veruska (Bonus Track).wav

     Peak level 96.2 %
     Extraction speed 11.8 X
     Track quality 99.9 %
     Test CRC 4BF23567
     Copy CRC 4BF23567
     Accurately ripped (confidence 2)  [CD116263]  (AR v2)
     Copy OK

Track 13

     Filename C:\tmp\00_RIPS\13 - Free Spirit (Bonus Track).wav

     Peak level 97.7 %
     Extraction speed 15.6 X
     Track quality 100.0 %
     Test CRC 84ADCC43
     Copy CRC 84ADCC43
     Accurately ripped (confidence 2)  [D9E56DD9]  (AR v2)
     Copy OK

Track 14

     Filename C:\tmp\00_RIPS\14 - If I Had A Woman (Bonus Track).wav

     Peak level 72.1 %
     Extraction speed 15.3 X
     Track quality 100.0 %
     Test CRC BF67C1F3
     Copy CRC BF67C1F3
     Accurately ripped (confidence 2)  [B253150E]  (AR v2)
     Copy OK

Track 15

     Filename C:\tmp\00_RIPS\15 - Elijah (Bonus Track).wav

     Peak level 87.8 %
     Extraction speed 17.0 X
     Track quality 100.0 %
     Test CRC 7FD05726
     Copy CRC 7FD05726
     Accurately ripped (confidence 2)  [FD5DD9EF]  (AR v2)
     Copy OK


All tracks accurately ripped

No errors occurred

End of status report

---- CUETools DB Plugin V2.1.6

[CTDB TOCID: UVImyzmar6nPLVepS.20q4UUtE0-] found
Submit result: UVImyzmar6nPLVepS.20q4UUtE0- has been confirmed
Track | CTDB Status
  1   | (7/7) Accurately ripped
  2   | (7/7) Accurately ripped
  3   | (7/7) Accurately ripped
  4   | (7/7) Accurately ripped
  5   | (7/7) Accurately ripped
  6   | (7/7) Accurately ripped
  7   | (7/7) Accurately ripped
  8   | (7/7) Accurately ripped
  9   | (7/7) Accurately ripped
 10   | (7/7) Accurately ripped
 11   | (7/7) Accurately ripped
 12   | (7/7) Accurately ripped
 13   | (7/7) Accurately ripped
 14   | (7/7) Accurately ripped
 15   | (7/7) Accurately ripped


==== Log checksum 276021B52DB752C538CAFE4D3E8F2ACCA7E76CB86A04A48BB9F7BA24AB816C6F ====



Create a new paste based on this one


Comments: