[ create a new paste ] login | about

Link: http://codepad.org/PzVhCiCp    [ raw code | fork ]

Plain Text, pasted on Aug 11:
foobar2000 1.3.17 / Dynamic Range Meter 1.1.1
log date: 2018-08-10 13:09:34

--------------------------------------------------------------------------------
Analyzed: Jimi Hendrix / Machine Gun Jimi Hendrix The Filmore East 12/31/1969 (First Show)
--------------------------------------------------------------------------------

DR         Peak         RMS     Duration Track
--------------------------------------------------------------------------------
DR13      -6.69 dB   -21.72 dB      5:30 01-Power of Soul
DR13      -7.89 dB   -22.63 dB      3:14 02-Lover Man
DR14      -6.91 dB   -22.20 dB      9:06 03-Hear My Train a Comin'
DR13      -7.19 dB   -22.68 dB      5:58 04-Changes
DR12      -7.94 dB   -21.68 dB      3:29 05-Izabella
DR14      -6.21 dB   -22.37 dB      8:54 06-Machine Gun
DR13      -6.76 dB   -21.73 dB      5:30 07-Stop
DR13      -6.95 dB   -21.45 dB      5:55 08-Ezy Rider
DR13      -6.79 dB   -23.18 dB      6:38 09-Bleeding Heart
DR13      -6.41 dB   -21.87 dB      6:24 10-Earth Blues
DR12      -7.16 dB   -22.69 dB      9:40 11-Burning Desire
--------------------------------------------------------------------------------

Number of tracks:  11
Official DR value: DR13

Samplerate:        2822400 Hz / PCM Samplerate: 176400 Hz
Channels:          2
Bits per sample:   1
Bitrate:           5645 kbps
Codec:             DSD64
================================================================================




Create a new paste based on this one


Comments: