[ create a new paste ] login | about

Link: http://codepad.org/Q1xFMVDf    [ raw code | fork ]

Plain Text, pasted on Jul 14:
Exact Audio Copy V1.3 from 2. September 2016

EAC extraction logfile from 1. May 2018, 15:27

Spirit / It Shall Be CD3

Used drive  : PLEXTOR BD-R  PX-B950SA   Adapter: 1  ID: 1

Read mode               : Secure
Utilize accurate stream : Yes
Defeat audio cache      : Yes
Make use of C2 pointers : No

Read offset correction                      : 6
Overread into Lead-In and Lead-Out          : No
Fill up missing offset samples with silence : Yes
Delete leading and trailing silent blocks   : No
Null samples used in CRC calculations       : Yes
Used interface                              : Native Win32 interface for Win NT & 2000

Used output format : Internal WAV Routines
Sample format      : 44.100 Hz; 16 Bit; Stereo


TOC of the extracted CD

     Track |   Start  |  Length  | Start sector | End sector 
    ---------------------------------------------------------
        1  |  0:00.00 |  3:43.71 |         0    |    16795   
        2  |  3:43.71 |  2:40.14 |     16796    |    28809   
        3  |  6:24.10 |  3:10.59 |     28810    |    43118   
        4  |  9:34.69 |  2:42.09 |     43119    |    55277   
        5  | 12:17.03 |  1:05.28 |     55278    |    60180   
        6  | 13:22.31 |  4:01.14 |     60181    |    78269   
        7  | 17:23.45 |  3:25.26 |     78270    |    93670   
        8  | 20:48.71 |  5:37.22 |     93671    |   118967   
        9  | 26:26.18 |  3:43.26 |    118968    |   135718   
       10  | 30:09.44 |  3:29.63 |    135719    |   151456   
       11  | 33:39.32 |  2:50.69 |    151457    |   164275   
       12  | 36:30.26 |  2:47.30 |    164276    |   176830   
       13  | 39:17.56 |  3:21.06 |    176831    |   191911   
       14  | 42:38.62 |  3:29.08 |    191912    |   207594   
       15  | 46:07.70 |  3:37.71 |    207595    |   223940   
       16  | 49:45.66 |  2:01.74 |    223941    |   233089   
       17  | 51:47.65 |  3:52.49 |    233090    |   250538   
       18  | 55:40.39 |  4:47.61 |    250539    |   272124   
       19  | 60:28.25 |  3:54.48 |    272125    |   289722   
       20  | 64:22.73 |  2:22.19 |    289723    |   300391   
       21  | 66:45.17 |  2:47.41 |    300392    |   312957   
       22  | 69:32.58 |  2:37.08 |    312958    |   324740   
       23  | 72:09.66 |  5:21.03 |    324741    |   348818   


Range status and errors

Selected range

     Filename C:\Spirit\2018 It Shall Be (5CD Box Set Esoteric Records)\CD3\Spirit - It Shall Be CD3.wav

     Peak level 99.4 %
     Extraction speed 8.3 X
     Range quality 100.0 %
     Test CRC A8460AC7
     Copy CRC A8460AC7
     Copy OK

No errors occurred

 
AccurateRip summary
 
Track  1  accurately ripped (confidence 2)  [72B91B0D]  (AR v2)
Track  2  accurately ripped (confidence 2)  [0235FEC3]  (AR v2)
Track  3  accurately ripped (confidence 2)  [813A7B87]  (AR v2)
Track  4  accurately ripped (confidence 2)  [CDB0F05D]  (AR v2)
Track  5  accurately ripped (confidence 2)  [F19509C3]  (AR v2)
Track  6  accurately ripped (confidence 2)  [D41CA099]  (AR v2)
Track  7  accurately ripped (confidence 2)  [76EB24EF]  (AR v2)
Track  8  accurately ripped (confidence 2)  [4C201F70]  (AR v2)
Track  9  accurately ripped (confidence 2)  [90B94623]  (AR v2)
Track 10  accurately ripped (confidence 2)  [6C56C876]  (AR v2)
Track 11  accurately ripped (confidence 2)  [A15C964F]  (AR v2)
Track 12  accurately ripped (confidence 2)  [E83030CA]  (AR v2)
Track 13  accurately ripped (confidence 2)  [95AE5CCD]  (AR v2)
Track 14  accurately ripped (confidence 2)  [CF952AD8]  (AR v2)
Track 15  accurately ripped (confidence 2)  [D8A60BAE]  (AR v2)
Track 16  accurately ripped (confidence 2)  [59560E6C]  (AR v2)
Track 17  accurately ripped (confidence 2)  [1634D3FB]  (AR v2)
Track 18  accurately ripped (confidence 2)  [1DC8882E]  (AR v2)
Track 19  accurately ripped (confidence 2)  [D4CB33EB]  (AR v2)
Track 20  accurately ripped (confidence 2)  [EF6923F8]  (AR v2)
Track 21  accurately ripped (confidence 2)  [59AB3DA9]  (AR v2)
Track 22  accurately ripped (confidence 2)  [FDCBAC14]  (AR v2)
Track 23  accurately ripped (confidence 2)  [A6227ABF]  (AR v2)
 
All tracks accurately ripped

End of status report

---- CUETools DB Plugin V2.1.6

[CTDB TOCID: St6NbfqOgf1W04JMavSKCudakJw-] found
Submit result: St6NbfqOgf1W04JMavSKCudakJw- has been confirmed
Track | CTDB Status
  1   | (8/8) Accurately ripped
  2   | (8/8) Accurately ripped
  3   | (8/8) Accurately ripped
  4   | (8/8) Accurately ripped
  5   | (8/8) Accurately ripped
  6   | (8/8) Accurately ripped
  7   | (8/8) Accurately ripped
  8   | (8/8) Accurately ripped
  9   | (8/8) Accurately ripped
 10   | (8/8) Accurately ripped
 11   | (8/8) Accurately ripped
 12   | (8/8) Accurately ripped
 13   | (8/8) Accurately ripped
 14   | (8/8) Accurately ripped
 15   | (8/8) Accurately ripped
 16   | (8/8) Accurately ripped
 17   | (8/8) Accurately ripped
 18   | (8/8) Accurately ripped
 19   | (8/8) Accurately ripped
 20   | (8/8) Accurately ripped
 21   | (8/8) Accurately ripped
 22   | (8/8) Accurately ripped
 23   | (8/8) Accurately ripped


==== Log checksum C22A291A4A45852C212E9BC23E29FA66F06E24BD37488964A628EA48DE576C92 ====



Create a new paste based on this one


Comments: