[ create a new paste ] login | about

Link: http://codepad.org/Q4zCbo7q    [ raw code | fork ]

Plain Text, pasted on May 8:
foobar2000 1.4.1 / Dynamic Range Meter 1.1.1
log date: 2019-05-07 23:13:45

--------------------------------------------------------------------------------
Analyzed: Miles Davis / Seven Steps To Heaven
--------------------------------------------------------------------------------

DR         Peak         RMS     Duration Track
--------------------------------------------------------------------------------
DR34      -0.01 dB   -36.75 dB     10:30 01-Basin Street Blues
DR8      -11.87 dB   -32.92 dB      6:24 02-Seven Steps To Heaven
DR10     -12.32 dB   -34.64 dB      6:46 03-I Fall In Love Too Easy
DR8      -12.21 dB   -32.22 dB      6:59 04-So Near, So Far
DR10     -14.60 dB   -35.85 dB      8:27 05-Baby, Won't You Please Come Home
DR7      -14.70 dB   -34.47 dB      7:02 06-Joshua
--------------------------------------------------------------------------------

Number of tracks:  6
Official DR value: DR13

Samplerate:        88200 Hz
Channels:          5
Bits per sample:   24
Bitrate:           3593 kbps
Codec:             FLAC
================================================================================




Create a new paste based on this one


Comments: