[ create a new paste ] login | about

Link: http://codepad.org/Q76pmHGW    [ raw code | fork ]

Plain Text, pasted on May 8:
foobar2000 1.4.1 / Dynamic Range Meter 1.1.1
log date: 2019-05-07 23:10:28

--------------------------------------------------------------------------------
Analyzed: MILES DAVIS / PORGY AND BESS
--------------------------------------------------------------------------------

DR         Peak         RMS     Duration Track
--------------------------------------------------------------------------------
DR14      -2.43 dB   -20.11 dB      4:14 01-THE BUZZARD SONG
DR11      -5.74 dB   -21.03 dB      5:16 02-BESS, YOU IS MY WOMAN NOW
DR14      -1.54 dB   -18.97 dB      3:42 03-GONE
DR11      -4.46 dB   -19.94 dB      2:07 04-GONE, GONE, GONE
DR13      -5.24 dB   -21.89 dB      3:23 05-SUMMERTIME
DR12      -2.00 dB   -19.36 dB      4:34 06-BESS, OH WHERE'S MY BESS
DR12      -1.94 dB   -19.07 dB      4:45 07-PRAYER (Oh Doctor Jesus)
DR10      -6.27 dB   -21.26 dB      4:11 08-FISHERMEN, STRAWBERRY AND DEVIL CRAB
DR14      -3.00 dB   -21.14 dB      6:27 09-MY MAN'S GONE NOW
DR13      -2.40 dB   -19.17 dB      4:29 10-IT AIN'T NECESSARILY SO
DR11      -5.47 dB   -22.03 dB      1:27 11-HERE COME DE HONEY MAN
DR11      -4.85 dB   -20.89 dB      3:41 12-I LOVES YOU, PORGY
DR13      -1.67 dB   -18.46 dB      3:23 13-THERE'S A BOAT THAT'S LEAVING SOON FOR NEW YORK
--------------------------------------------------------------------------------

Number of tracks:  13
Official DR value: DR12

Samplerate:        88200 Hz
Channels:          2
Bits per sample:   24
Bitrate:           2841 kbps
Codec:             FLAC
================================================================================




Create a new paste based on this one


Comments: