[ create a new paste ] login | about

Link: http://codepad.org/QATNFAcs    [ raw code | fork ]

Plain Text, pasted on Sep 12:
foobar2000 1.2.2 / Dynamic Range Meter 1.1.1
log date: 2013-06-19 11:30:51

--------------------------------------------------------------------------------
Analyzed: Roxy Music / Avalon (2003 Hybrid SACD)
--------------------------------------------------------------------------------

DR         Peak         RMS     Duration Track
--------------------------------------------------------------------------------
DR13      -0.01 dB   -15.58 dB      4:30 01-More Than This
DR15      -0.05 dB   -17.09 dB      4:30 02-The Space Between
DR13      -0.92 dB   -15.79 dB      4:17 03-Avalon
DR13      -1.42 dB   -17.54 dB      1:45 04-India
DR14      -0.25 dB   -16.87 dB      3:26 05-While My Heart Is Still Beating
DR14      -0.30 dB   -16.12 dB      3:54 06-The Main Thing
DR13      -0.27 dB   -15.38 dB      4:42 07-Take A Chance With Me
DR11      -0.56 dB   -15.14 dB      4:17 08-To Turn You On
DR12      -0.53 dB   -14.39 dB      4:25 09-True To Life
DR10      -7.10 dB   -20.07 dB      1:32 10-Tara
--------------------------------------------------------------------------------

Number of tracks:  10
Official DR value: DR13

Samplerate:        88200 Hz
Channels:          2
Bits per sample:   24
Bitrate:           2462 kbps
Codec:             FLAC
================================================================================




Create a new paste based on this one


Comments: