[ create a new paste ] login | about

Link: http://codepad.org/QBaSPeda    [ raw code | fork ]

Plain Text, pasted on Mar 22:
Exact Audio Copy V0.99 prebeta 4 from 23. January 2008

Отчёт EAC об извлечении, выполненном 15. ноября 2010, 20:56

The Blues Band / The Blues Band Box - Disk 3

Дисковод: Optiarc DVD RW AD-7200A   Adapter: 0  ID: 1

Режим чтения                 : Достоверность
Использование точного потока : Да
Отключение кэша аудио        : Да
Использование указателей C2  : Нет

Коррекция смещения при чтении                     : 48
Способность читать области Lead-in и Lead-out     : Нет
Заполнение пропущенных сэмплов тишиной            : Да
Удаление блоков с тишиной в начале и конце        : Нет
При вычислениях CRC использовались нулевые сэмплы : Да
Интерфейс                                         : Встроенный Win32-интерфейс для Win NT/2000

Выходной формат          : Пользовательский кодировщик
Выбранный битрейт        : 128 kBit/s
Качество                 : Высокий
Добавление ID3-тэга      : Нет
Утилита сжатия           : C:\Program Files\Exact Audio Copy\wavpack.exe
Дополнительные параметры : -w "Artist=%a" -w "Title=%t" -w "Album=%g" -w "Year=%y" -w "Track=%n" -w "Genre=%m" -h %s %d


TOC извлечённого CD

     Трек |   Старт  | Длительность | Начальный сектор | Конечный сектор 
    ---------------------------------------------------------------------
       1  |  0:00.00 |    3:40.54   |           0      |      16553      
       2  |  3:40.54 |    4:10.49   |       16554      |      35352      
       3  |  7:51.28 |    5:04.17   |       35353      |      58169      
       4  | 12:55.45 |    2:35.29   |       58170      |      69823      
       5  | 15:30.74 |    5:03.54   |       69824      |      92602      
       6  | 20:34.53 |    6:30.10   |       92603      |     121862      
       7  | 27:04.63 |    2:54.55   |      121863      |     134967      
       8  | 29:59.43 |    5:17.05   |      134968      |     158747      
       9  | 35:16.48 |    2:51.41   |      158748      |     171613      
      10  | 38:08.14 |    2:53.34   |      171614      |     184622      
      11  | 41:01.48 |    4:08.72   |      184623      |     203294      
      12  | 45:10.45 |    3:56.12   |      203295      |     221006      
      13  | 49:06.57 |    3:57.18   |      221007      |     238799      
      14  | 53:04.00 |    6:21.54   |      238800      |     267428      
      15  | 59:25.54 |    3:59.34   |      267429      |     285387      
      16  | 63:25.13 |    4:23.25   |      285388      |     305137      
      17  | 67:48.38 |    3:29.23   |      305138      |     320835      
      18  | 71:17.61 |    3:56.11   |      320836      |     338546      
      19  | 75:13.72 |    3:30.37   |      338547      |     354333      


Характеристики диапазона извлечения и сообщения об ошибках

Выбранный диапазон

     Имя файла Y:\Releases\The Blues Band\The Blues Band Box (2005)\The Blues Band - The Blues Band Box (2005)\The Blues Band - The Blues Band Box - Disk 3.wav

     Пиковый уровень 100.0 %
     Качество диапазона 100.0 %
     CRC теста 57E511F9
     CRC копии 57E511F9
     Копирование... OK

Ошибок не произошло

 
AccurateRip: сводка
 
Трек  1  точное извлечение (доверие 4)  [9A47D196]
Трек  2  точное извлечение (доверие 3)  [CACD7181]
Трек  3  точное извлечение (доверие 4)  [4CF843FD]
Трек  4  точное извлечение (доверие 4)  [3C81F0D2]
Трек  5  точное извлечение (доверие 4)  [99DC5921]
Трек  6  точное извлечение (доверие 4)  [60E557EC]
Трек  7  точное извлечение (доверие 4)  [25C235B2]
Трек  8  точное извлечение (доверие 4)  [F3C1BE1C]
Трек  9  точное извлечение (доверие 4)  [1D3A00E8]
Трек 10  точное извлечение (доверие 4)  [BE1944EA]
Трек 11  точное извлечение (доверие 4)  [5E4C18F5]
Трек 12  точное извлечение (доверие 4)  [34356D9E]
Трек 13  точное извлечение (доверие 4)  [DEE77AB6]
Трек 14  точное извлечение (доверие 4)  [5F2E9B7C]
Трек 15  точное извлечение (доверие 4)  [09C37DBE]
Трек 16  точное извлечение (доверие 4)  [9E7411F5]
Трек 17  точное извлечение (доверие 4)  [0D63A9EE]
Трек 18  точное извлечение (доверие 4)  [A447C792]
Трек 19  точное извлечение (доверие 4)  [EAD8912D]
 
Все треки извлечены точно

Конец отчёта



Create a new paste based on this one


Comments: